.
Авторизация | Регистрация
Хочешь лучшие торренты? Добавь свой email!
Добавить
» » Костяной томагавк / Bone Tomahawk (2015) BDRip 720p от ExKinoRay | D, A | iTunes скачать торрент бесплатно




    Костяной томагавк / Bone Tomahawk (2015) BDRip 720p от ExKinoRay | D, A | iTunes скачать торрент бесплатно

    Опубликовал: Админ | Дата: 30-06-2016, 05:00 | Просмотров: 70



    Детально о кино
    Русское название: Костяной томагавк
    Русское название в мировом прокате: Bone Tomahawk
    Создали в: 2015
    Категория жанра: Ужасы, вестерн
    Главный режиссер: С. Крэйг Залер

    Актеры
    Патрик Уилсон, Курт Расселл, Лили Симмонс, Шон Янг, Занн МаКларнон, Мэттью Фокс, Дэвид Аркетт, Сид Хэйг, Ричард Дженкинс, Кэтрин Моррис

    Сюжет фильма

    Четверо людей приезжают на дикий запад, для того чтобы убрать кровожадных каннибалов из пещер. Ведь население напугано. Каждую ночь эти монстры приходят и забирают самых слабых, только для того, чтобы полакомиться трупами.

    Снималось в: США
    Киностудия: Caliber Media Company
    Время просмотра: 02: 12: 03
    Перевод текста: Дублированный | iTunes
    Авторский одноголосый (закадровый) | Сергей Визгунов
    Файл
    Кодек для видео: MPEG-4
    Качество фильма: BDRip 720p
    Информация о видео: 1280x536, 8720 Kbit/s, 23.976 fps
    Информация о звуке:
    Информация о звуке #01: 48 kHz, AC3, 5.1, 384 Kbps | Дублированный, iTunes |
    Информация о звуке #02: 48 kHz, AC3, 5.1, 448 Kbps | Авторский одноголосый (закадровый), Сергей Визгунов |
    Информация о звуке #03: 48 kHz, DTS, 5.1, 1510 kbps | Оригинал |
    Субтитры: Русские, английские
    Релиз подготовил: Автор релиза:

    MI
    General
    Unique ID : 175889276773513936795944072013712212739 (0x84530AE181F04809B788022C91404303)
    Complete name : F: VideoBone.Tomahawk.2015.BDRip.720p.ExKinoRay.mkv
    Format : Matroska
    Format version : Version 4/Version 2
    File size : 10.2 GiB
    Duration : 2h 12mn
    Overall bit rate : 11.1 Mbps
    Movie name : Bone.Tomahawk.2015.BDRip.720p.ExKinoRay
    Encoded date : UTC 2016-06-29 06: 14: 21
    Writing application : mkvmerge v8.3.0 (;Over the Horizon;) 64bit
    Writing library : libebml v1.3.1 + libmatroska v1.4.2
    Video
    ID : 1
    Format : AVC
    Format/Info : Advanced Video Codec
    Format profile : High@L4.1
    Format settings, CABAC : Yes
    Format settings, ReFrames : 8 frames
    Codec ID : V_MPEG4/ISO/AVC
    Duration : 2h 12mn
    Bit rate : 8 720 Kbps
    Width : 1 280 pixels
    Height : 536 pixels
    Display aspect ratio : 2.40: 1
    Frame rate mode : Constant
    Frame rate : 23.976 (24000/1001) fps
    Color space : YUV
    Chroma subsampling : 4: 2: 0
    Bit depth : 8 bits
    Scan type : Progressive
    Bits/(Pixel*Frame) : 0.530
    Stream size : 8.04 GiB (79%)
    Writing library : x264 core 142 r2431+42 c69a006 tMod 8-bit@all X86_64
    Encoding settings : cabac=1/ref=8/deblock=1: -3: -3/analyse=0x3: 0x133/me=umh/subme=10/psy=1/fade_compensate=0.00/psy_rd=1.00: 1.00/mixed_ref=1/me_range=48/chroma_me=1/trellis=2/8x8dct=1/cqm=0/deadzone=21, 11/fast_pskip=0/chroma_qp_offset=-4/threads=16/lookahead_threads=2/sliced_threads=0/nr=0/decimate=1/interlaced=0/bluray_compat=0/constrained_intra=0/fgo=0/bframes=8/b_pyramid=2/b_adapt=2/b_bias=0/direct=3/weightb=1/open_gop=0/weightp=2/keyint=240/keyint_min=23/scenecut=40/intra_refresh=0/rc_lookahead=150/rc=2pass/mbtree=1/bitrate=8720/ratetol=1.0/qcomp=0.60/qpmin=0: 0: 0/qpmax=69: 69: 69/qpstep=4/cplxblur=20.0/qblur=0.5/vbv_maxrate=62500/vbv_bufsize=78125/nal_hrd=none/filler=0/ip_ratio=1.20/aq=2: 0.70/aq-sensitivity=10.00/aq-factor=1.00: 1.00: 1.00/aq2=0/aq3=0
    Language : English
    Default : Yes
    Forced : No
    Color range : Limited
    Matrix coefficients : BT.709
    Audio #1
    ID : 2
    Format : AC-3
    Format/Info : Audio Coding 3
    Mode extension : CM (complete main)
    Format settings, Endianness : Big
    Codec ID : A_AC3
    Duration : 2h 12mn
    Bit rate mode : Constant
    Bit rate : 384 Kbps
    Channel(s) : 6 channels
    Channel positions : Front: L C R, Side: L R, LFE
    Sampling rate : 48.0 KHz
    Frame rate : 31.250 fps (1536 spf)
    Compression mode : Lossy
    Stream size : 363 MiB (3%)
    Title : DUB iTunes
    Language : Russian
    Default : Yes
    Forced : No
    Audio #2
    ID : 3
    Format : AC-3
    Format/Info : Audio Coding 3
    Mode extension : CM (complete main)
    Format settings, Endianness : Big
    Codec ID : A_AC3
    Duration : 2h 12mn
    Bit rate mode : Constant
    Bit rate : 448 Kbps
    Channel(s) : 6 channels
    Channel positions : Front: L C R, Side: L R, LFE
    Sampling rate : 48.0 KHz
    Frame rate : 31.250 fps (1536 spf)
    Compression mode : Lossy
    Stream size : 423 MiB (4%)
    Title : AVO Vizgunov
    Language : Russian
    Default : No
    Forced : No
    Audio #3
    ID : 4
    Format : DTS
    Format/Info : Digital Theater Systems
    Mode : 16
    Format settings, Endianness : Big
    Codec ID : A_DTS
    Duration : 2h 12mn
    Bit rate mode : Constant
    Bit rate : 1 509 Kbps
    Channel(s) : 6 channels
    Channel positions : Front: L C R, Side: L R, LFE
    Sampling rate : 48.0 KHz
    Frame rate : 93.750 fps (512 spf)
    Bit depth : 24 bits
    Compression mode : Lossy
    Stream size : 1.39 GiB (14%)
    Title : Original
    Language : English
    Default : No
    Forced : No
    Text #1
    ID : 5
    Format : UTF-8
    Codec ID : S_TEXT/UTF8
    Codec ID/Info : UTF-8 Plain Text
    Duration : 2h 3mn
    Bit rate : 73 bps
    Count of elements : 1308
    Stream size : 66.3 KiB (0%)
    Title : Full
    Language : Russian
    Default : No
    Forced : No
    Text #2
    ID : 6
    Format : UTF-8
    Codec ID : S_TEXT/UTF8
    Codec ID/Info : UTF-8 Plain Text
    Duration : 2h 3mn
    Bit rate : 44 bps
    Count of elements : 1475
    Stream size : 40.0 KiB (0%)
    Title : Full
    Language : English
    Default : No
    Forced : No
    Text #3
    ID : 7
    Format : UTF-8
    Codec ID : S_TEXT/UTF8
    Codec ID/Info : UTF-8 Plain Text
    Duration : 2h 3mn
    Bit rate : 44 bps
    Count of elements : 1480
    Stream size : 40.2 KiB (0%)
    Title : SDH
    Language : English
    Default : No
    Forced : No
    Menu
    00: 00: 00.000 : en: Chapter 01
    00: 09: 52.925 : en: Chapter 02
    00: 24: 26.339 : en: Chapter 03
    00: 34: 52.381 : en: Chapter 04
    00: 46: 55.270 : en: Chapter 05
    01: 02: 34.792 : en: Chapter 06
    01: 12: 38.645 : en: Chapter 07
    01: 27: 47.512 : en: Chapter 08
    01: 34: 12.772 : en: Chapter 09
    01: 46: 46.024 : en: Chapter 10
    01: 56: 19.389 : en: Chapter 11
    02: 04: 48.397 : en: Chapter 12
    Скриншоты


    Онлайн видео Костяной томагавк


    Размер скачиваемого торрента: 10.20 GB (10953185946 Bytes)

    Костяной томагавк/Bone Tomahawk (2015) BDRip 720p от ExKinoRay | D, A | iTunes
    загрузка...
    Рейтинг →
     (голосов: 1, оценка 4/5, голосовать можно 1 раз )

    Другие торренты по теме:

  • Костяной томагавк / Bone Tomahawk / 2015 / ПМ / WEB-DLRip
  • Костяной томагавк / Bone Tomahawk (2015) BDRip 720p от Scarabey | L
  • Костяной томагавк / Bone Tomahawk (2015) BDRip 720p | iTunes
  • Костяной томагавк / Bone Tomahawk (2015) BDRip 720p от Scarabey | iTunes, L
  • Костяной томагавк / Bone Tomahawk (2015) HDRip от MediaClub | КПК
  • Костяной томагавк / Bone Tomahawk (2015) BDRip от ExKinoRay | Визгунов


    • Комментарии (0):

      Информация

      Информация

        Посетители, находящиеся в группе Гости, не могут оставлять комментарии в данной новости.

        ↓ Меню



        ↓ Опрос

        А Вы добавили сайт в закладки?
        Да
        Не


        Top 10 за месяц (Фильмы)