.
Авторизация | Регистрация
Хочешь лучшие торренты? Добавь свой email!
Добавить
» » Хроники мстителя / Vigilante Diaries (2016) BDRemux 1080p от ExKinoRay | L1 скачать торрент бесплатно




    Хроники мстителя / Vigilante Diaries (2016) BDRemux 1080p от ExKinoRay | L1 скачать торрент бесплатно

    Опубликовал: Админ | Дата: 29-06-2016, 05:00 | Просмотров: 189



    Детально о кино
    Русское название: Хроники мстителя
    Русское название в мировом прокате: Vigilante Diaries
    Создали в: 2016
    Категория жанра: Боевик
    Главный режиссер: Кристиан Сесма

    Актеры
    Джейсон Мьюз, Куинтон Джексон, Пол Слоун, Кевин Л. Уокер, Майкл Джей Уайт, Майкл Мэдсен, Майк Хаттон, Джеймс Руссо, Арман Ншанян, Сальвадор Герерро мл.

    Сюжет фильма

    Главным героем выступает мужчина по имени Даг Глатт. Он – настоящий вышибала. С самого детства природа наделила парнишку невероятной силой. Когда Даг повзрослел, то устроился в бар и успокаивал буйных, паяных, выскочек. Вот уже на протяжении многих лет мужчина каждый день проводит в одном местном баре и выполняет одну и ту же работу. Он потерял уже всякую надежду на то, что может заняться в своей жизни чем-то другим. Да и чем заняться, если у него есть всего один талант – сила? После очередного успокоения буйных клиентов мужчина дает слово, что больше не будет вышибалой. Он устал, ему хочется покоя. И если бы в этот момент Глатт понимал, что сейчас изменится его судьба, жизнь полностью. То, как вышибала уверенно, умело и четко выставлял паяных, громких, хамоватых клиентов из бара на улицу видел один человек. Незнакомец был под большим впечатлением. Этого мужчину заметил и Даг. Он отличался от местного контингента посетителей. Новый посетитель был ухоженным, в дорогом костюме, с хорошими манерами. Оказалось, что незнакомец – известный тренер хоккейной команды. Вдруг он делает вышибале неожиданное предложение – стать игроком его хоккейной команды. Но как, если Даг вообще не умеет играть в хоккей. Да какая там игра в хоккей, если он даже не умеет стоять на льду! Но мужчина настаивал. Так Глатт стал членом команды. На льду, во время игры, основной его целью была не сама игра, а сшибать игроков команды противника. И в тех случаях, когда противнику удавалось выигрывать, Даг делал так, что одним ударом мог вывести всю команду из строя. Сейчас в команде Дага появились новые амбициозные хоккеисты, которые точно также нуждаются в его помощи во время игры.

    Снималось в: США
    Киностудия: Oscar Gold Productions, Seskri Produktionz, Ton of Hats, Vallelonga Productions
    Время просмотра: 01: 39: 43
    Перевод текста: Любительский одноголосый (закадровый) | Хихидок
    Файл
    Кодек для видео: MPEG-4
    Качество фильма: BDRemux 1080p
    Информация о видео: 1920x1080, 21.2 Mbit/s, 23.976 fps
    Информация о звуке:
    Информация о звуке #01: 48 kHz, AC3, 2.0, 192 Kbps | Любительский одноголосый (закадровый), Хихидок |
    Информация о звуке #02: 48 kHz, TrueHD, 5.1, 3176 kbps | Оригинал |
    Субтитры: Английские
    Релиз подготовил: Автор релиза:

    MI
    General
    Unique ID : 227343555340707365242504464343379847523 (0xAB08C6ADCBB576F6A9A2C62EEEA9A963)
    Complete name : F: VideoVigilante.Diaries.2016.BDREMUX.1080p.ExKinoRay.mkv
    Format : Matroska
    Format version : Version 4/Version 2
    File size : 18.9 GiB
    Duration : 2h 3mn
    Overall bit rate mode : Variable
    Overall bit rate : 21.8 Mbps
    Movie name : Vigilante.Diaries.2016.BDREMUX.1080p.ExKinoRay
    Encoded date : UTC 2016-06-29 00: 10: 41
    Writing application : mkvmerge v8.3.0 (;Over the Horizon;) 64bit
    Writing library : libebml v1.3.1 + libmatroska v1.4.2
    Video
    ID : 1
    Format : AVC
    Format/Info : Advanced Video Codec
    Format profile : High@L4.1
    Format settings, CABAC : Yes
    Format settings, ReFrames : 4 frames
    Codec ID : V_MPEG4/ISO/AVC
    Duration : 1h 47mn
    Bit rate mode : Variable
    Bit rate : 21.2 Mbps
    Maximum bit rate : 31.0 Mbps
    Width : 1 920 pixels
    Height : 1 080 pixels
    Display aspect ratio : 16: 9
    Frame rate mode : Constant
    Frame rate : 23.976 (24000/1001) fps
    Color space : YUV
    Chroma subsampling : 4: 2: 0
    Bit depth : 8 bits
    Scan type : Progressive
    Bits/(Pixel*Frame) : 0.426
    Stream size : 15.9 GiB (84%)
    Language : English
    Default : Yes
    Forced : No
    Audio #1
    ID : 2
    Format : AC-3
    Format/Info : Audio Coding 3
    Mode extension : CM (complete main)
    Format settings, Endianness : Big
    Codec ID : A_AC3
    Duration : 1h 47mn
    Bit rate mode : Constant
    Bit rate : 192 Kbps
    Channel(s) : 2 channels
    Channel positions : Front: L R
    Sampling rate : 48.0 KHz
    Frame rate : 31.250 fps (1536 spf)
    Compression mode : Lossy
    Stream size : 148 MiB (1%)
    Title : VO хихидок
    Language : Russian
    Default : Yes
    Forced : No
    Audio #2
    ID : 3
    Format : TrueHD
    Codec ID : A_TRUEHD
    Duration : 2h 3mn
    Bit rate mode : Variable
    Bit rate : 3 176 Kbps
    Maximum bit rate : 5 877 Kbps
    Channel(s) : 6 channels
    Channel positions : Front: L C R, Side: L R, LFE
    Sampling rate : 48.0 KHz
    Frame rate : 1 200.000 fps (40 spf)
    Compression mode : Lossless
    Stream size : 2.75 GiB (15%)
    Title : Original
    Language : English
    Default : No
    Forced : No
    Text #1
    ID : 4
    Format : UTF-8
    Codec ID : S_TEXT/UTF8
    Codec ID/Info : UTF-8 Plain Text
    Duration : 1h 46mn
    Bit rate : 51 bps
    Count of elements : 1221
    Stream size : 40.3 KiB (0%)
    Title : Full
    Language : English
    Default : No
    Forced : No
    Text #2
    ID : 5
    Format : UTF-8
    Codec ID : S_TEXT/UTF8
    Codec ID/Info : UTF-8 Plain Text
    Duration : 1h 47mn
    Bit rate : 56 bps
    Count of elements : 1393
    Stream size : 44.2 KiB (0%)
    Title : SDH
    Language : English
    Default : No
    Forced : No
    Menu
    00: 00: 00.000 : en: Chapter 1
    00: 06: 45.614 : en: Chapter 2
    00: 13: 31.144 : en: Chapter 3
    00: 25: 52.259 : en: Chapter 4
    00: 36: 45.412 : en: Chapter 5
    00: 47: 00.651 : en: Chapter 6
    00: 52: 48.374 : en: Chapter 7
    00: 59: 03.248 : en: Chapter 8
    01: 05: 51.281 : en: Chapter 9
    01: 23: 02.144 : en: Chapter 10
    01: 37: 22.336 : en: Chapter 11
    01: 41: 55.276 : en: Chapter 12
    Скриншоты


    Онлайн видео Хроники мстителя


    Размер скачиваемого торрента: 18.88 GB (20276410141 Bytes)

    Хроники мстителя/Vigilante Diaries (2016) BDRemux 1080p от ExKinoRay | L1
    загрузка...
    Рейтинг →
     (голосов: 1, оценка 4/5, голосовать можно 1 раз )

    Другие торренты по теме:

  • Хроники мстителя / Vigilante Diaries (2016) BDRip 720p | L1
  • Хроники мстителя / Vigilante Diaries / 2016 / ЛО / HDRip
  • Хроники мстителя / Vigilante Diaries / 2016 / ЛО / BDRip (1080p)
  • Хроники мстителя / Vigilante Diaries / 2016 / ЛО / HDRip
  • Хроники мстителя / Vigilante Diaries / 2016 / ЛО / BDRip (AVC)


    • Комментарии (0):

      Информация

      Информация

        Посетители, находящиеся в группе Гости, не могут оставлять комментарии в данной новости.

        ↓ Меню



        ↓ Опрос

        А Вы добавили сайт в закладки?
        Да
        Не


        Top 10 за месяц (Фильмы)