.
Авторизация | Регистрация
Хочешь лучшие торренты? Добавь свой email!
Добавить
» » Биркебейнеры / Birkebeinerne (2016) BDRip 720p от ExKinoRay | L скачать торрент бесплатно




    Биркебейнеры / Birkebeinerne (2016) BDRip 720p от ExKinoRay | L скачать торрент бесплатно

    Опубликовал: Админ | Дата: 29-06-2016, 05:00 | Просмотров: 80



    Детально о кино
    Русское название: Биркебейнеры
    Русское название в мировом прокате: Birkebeinerne
    Создали в: 2016
    Категория жанра: Боевик, драма, приключения
    Главный режиссер: Нильс Гёуп

    Актеры
    Якоб Офтебро, Кристофер Хивью, Пол Сверре Валхейм Хаген, Торбьорн Харр, Беньямин Хельстад, Николай Ли Кос, Ане Ульмуэн Эверли, Стиг Хенрик Хофф, Теа Софи Лок Нэсс, Андерс Дальберг, Торкель Доммерснес Сульдаль

    Сюжет фильма

    1204 год, Норвегию раздирает гражданская война. Незаконнорожденного сына короля Хокона III Сверрессона и Инги из Вартейга хранят в глубокой тайне. Мальчик был внебрачным сыном короля и родился после его смерти, что спровоцировало кровавую междоусобицу. Биркебейнеры (ополчение, созданное его дедом, королем Сверре Сигурдсоном) признали мальчика наследником трона Норвегии. Однако католические священники объявили охоту на ребенка с целью его уничтожения.

    Снималось в: Норвегия
    Киностудия: Paradox Film 3
    Время просмотра: 01: 39: 25
    Перевод текста: Любительский многоголосый (закадровый)
    Файл
    Кодек для видео: MPEG-4
    Качество фильма: BDRip 720p
    Информация о видео: 1280x544, 4929 Kbit/s, 24.000 fps
    Информация о звуке:
    Информация о звуке #01: 48 kHz, DTS, 5.1, 1510 Kbps | Любительский многоголосый (закадровый) |
    Информация о звуке #02: 48 kHz, AC3, 5.1, 640 Kbps | Любительский многоголосый (закадровый) |
    Информация о звуке #03: 48 kHz, DTS, 5.1, 1510 kbps | Оригинал |
    Релиз подготовил: Автор релиза:

    MI
    General
    Unique ID : 212203759842622704076864129178125501217 (0x9FA4F5214AC43954AA2E1BC4A5E88321)
    Complete name : F: VideoThe.Last.King.aka.Birkebeinerne.2016.BDRip.720p.ExKinoRay.mkv
    Format : Matroska
    Format version : Version 4/Version 2
    File size : 5.96 GiB
    Duration : 1h 39mn
    Overall bit rate : 8 590 Kbps
    Movie name : The.Last.King.aka.Birkebeinerne.2016.BDRip.720p.ExKinoRay
    Encoded date : UTC 2016-06-28 06: 51: 04
    Writing application : mkvmerge v8.3.0 (;Over the Horizon;) 64bit
    Writing library : libebml v1.3.1 + libmatroska v1.4.2
    Video
    ID : 1
    Format : AVC
    Format/Info : Advanced Video Codec
    Format profile : High@L4.1
    Format settings, CABAC : Yes
    Format settings, ReFrames : 12 frames
    Codec ID : V_MPEG4/ISO/AVC
    Duration : 1h 39mn
    Bit rate : 4 929 Kbps
    Width : 1 280 pixels
    Height : 544 pixels
    Display aspect ratio : 2.35: 1
    Frame rate mode : Constant
    Frame rate : 24.000 fps
    Color space : YUV
    Chroma subsampling : 4: 2: 0
    Bit depth : 8 bits
    Scan type : Progressive
    Bits/(Pixel*Frame) : 0.295
    Stream size : 3.42 GiB (57%)
    Writing library : x264 core 142 r2431+42 c69a006 tMod 8-bit@all X86_64
    Encoding settings : cabac=1/ref=12/deblock=1: -3: -3/analyse=0x3: 0x133/me=umh/subme=11/psy=1/fade_compensate=0.00/psy_rd=1.05: 1.00/mixed_ref=1/me_range=32/chroma_me=1/trellis=2/8x8dct=1/cqm=0/deadzone=21, 11/fast_pskip=0/chroma_qp_offset=-4/threads=12/lookahead_threads=2/sliced_threads=0/nr=0/decimate=0/interlaced=0/bluray_compat=0/constrained_intra=0/fgo=0/bframes=8/b_pyramid=2/b_adapt=2/b_bias=0/direct=3/weightb=1/open_gop=0/weightp=2/keyint=240/keyint_min=24/scenecut=40/intra_refresh=0/rc_lookahead=60/rc=crf/mbtree=0/crf=18.0000/qcomp=0.60/qpmin=0: 0: 0/qpmax=69: 69: 69/qpstep=4/vbv_maxrate=40000/vbv_bufsize=30000/crf_max=0.0/nal_hrd=none/filler=0/ip_ratio=1.40/pb_ratio=1.30/aq=1: 1.00/aq-sensitivity=10.00/aq-factor=1.00: 1.00: 1.00/aq2=0/aq3=0
    Language : Norwegian Nynorsk
    Default : Yes
    Forced : No
    Audio #1
    ID : 2
    Format : DTS
    Format/Info : Digital Theater Systems
    Mode : 16
    Format settings, Endianness : Big
    Codec ID : A_DTS
    Duration : 1h 39mn
    Bit rate mode : Constant
    Bit rate : 1 509 Kbps
    Channel(s) : 6 channels
    Channel positions : Front: L C R, Side: L R, LFE
    Sampling rate : 48.0 KHz
    Frame rate : 93.750 fps (512 spf)
    Bit depth : 24 bits
    Compression mode : Lossy
    Stream size : 1.05 GiB (18%)
    Title : MVO СoldFilm
    Language : Russian
    Default : Yes
    Forced : No
    Audio #2
    ID : 3
    Format : AC-3
    Format/Info : Audio Coding 3
    Mode extension : CM (complete main)
    Format settings, Endianness : Big
    Codec ID : A_AC3
    Duration : 1h 39mn
    Bit rate mode : Constant
    Bit rate : 640 Kbps
    Channel(s) : 6 channels
    Channel positions : Front: L C R, Side: L R, LFE
    Sampling rate : 48.0 KHz
    Frame rate : 31.250 fps (1536 spf)
    Compression mode : Lossy
    Stream size : 455 MiB (7%)
    Title : MVO СoldFilm
    Language : Russian
    Default : No
    Forced : No
    Audio #3
    ID : 4
    Format : DTS
    Format/Info : Digital Theater Systems
    Mode : 16
    Format settings, Endianness : Big
    Codec ID : A_DTS
    Duration : 1h 39mn
    Bit rate mode : Constant
    Bit rate : 1 509 Kbps
    Channel(s) : 6 channels
    Channel positions : Front: L C R, Side: L R, LFE
    Sampling rate : 48.0 KHz
    Frame rate : 93.750 fps (512 spf)
    Bit depth : 24 bits
    Compression mode : Lossy
    Stream size : 1.05 GiB (18%)
    Title : Original
    Language : Norwegian Nynorsk
    Default : No
    Forced : No
    Menu
    00: 00: 00.000 : en: Chapter 01
    00: 09: 59.791 : en: Chapter 02
    00: 19: 59.750 : en: Chapter 03
    00: 29: 59.666 : en: Chapter 04
    00: 39: 59.750 : en: Chapter 05
    00: 49: 59.833 : en: Chapter 06
    00: 59: 59.708 : en: Chapter 07
    01: 09: 59.708 : en: Chapter 08
    01: 19: 59.916 : en: Chapter 09
    01: 29: 59.791 : en: Chapter 10
    01: 39: 24.291 : en: Chapter 11
    Скриншоты


    Онлайн видео Биркебейнеры


    Размер скачиваемого торрента: 5.96 GB (6404359974 Bytes)

    Биркебейнеры/Birkebeinerne (2016) BDRip 720p от ExKinoRay | L
    загрузка...
    Рейтинг →
     (голосов: 1, оценка 5/5, голосовать можно 1 раз )

    Другие торренты по теме:

  • Биркебейнеры / Birkebeinerne (2016) HDRip | L1
  • Биркебейнеры / Birkebeinerne (2016) HDRip-AVC | L
  • Биркебейнеры / Birkebeinerne (2016) HDRip от Portablius | L
  • Биркебейнеры / Birkebeinerne (2016) BDRip от MegaPeer | L
  • Биркебейнеры / Birkebeinerne (2016) BDRip 1080p от ExKinoRay | L
  • Биркебейнеры / Birkebeinerne (2016) BDRip-AVC от NNNB | L
  • Биркебейнеры / Birkebeinerne (2016) HDRip | КПК | L
  • Биркебейнеры / Birkebeinerne (2016) BDRip-AVC от HELLYWOOD | GoldFilm


    • Комментарии (0):

      Информация

      Информация

        Посетители, находящиеся в группе Гости, не могут оставлять комментарии в данной новости.

        ↓ Меню



        ↓ Опрос

        А Вы добавили сайт в закладки?
        Да
        Не


        Top 10 за месяц (Фильмы)