.
Авторизация | Регистрация
Хочешь лучшие торренты? Добавь свой email!
Добавить
» » Срок жизни / Term Life (2016) BDRip 720p от ExKinoRay | L скачать торрент бесплатно




    Срок жизни / Term Life (2016) BDRip 720p от ExKinoRay | L скачать торрент бесплатно

    Опубликовал: Админ | Дата: 29-06-2016, 05:00 | Просмотров: 87



    Детально о кино
    Русское название: Срок жизни
    Русское название в мировом прокате: Term Life
    Создали в: 2016
    Категория жанра: Драма, криминал
    Главный режиссер: Питер Биллингсли

    Актеры
    Винс Вон, Хейли Стайнфелд, Джонатан Бэнкс, Джон Фавро, Тараджи П. Хенсон, Аннабет Гиш, Билл Пэкстон, Терренс Ховард, Мануэль Рульфо, Хорди Молья

    Сюжет фильма

    Фильм рассказывает о персонаже по имени Ник Бэрроу, который планирует кражи, а потом продаёт эти проекты тому, кто больше заплатит. Но наступает чёрный день - один из замыслов Ника с треском проваливается, и теперь его смерти жаждут все, начиная с главарей мафии и заканчивая оборотнями в погонах. Поняв, что от судьбы не убежишь, герой решает сделать напоследок что-то хорошее - он страхует жизнь на миллион долларов, чтобы после смерти обеспечить свою дочь. Не учитывает Ник только одного - страховка начнет действовать лишь через 21 день, в течение которых герою необходимо оставаться в живых. А это в его ситуации совсем не просто.

    Снималось в: США
    Киностудия: Palm-Star Entertainment, PenLife Media, Wild West Picture Show Productions
    Время просмотра: 01: 31: 50
    Перевод текста: Любительский многоголосый (закадровый) | Parovoz Production
    Файл
    Кодек для видео: MPEG-4
    Качество фильма: BDRip 720p
    Информация о видео: 1280x534, 7242 Kbit/s, 23.976 fps
    Информация о звуке:
    Информация о звуке #01: 48 kHz, AC3, 2.0, 384 Kbps | Любительский многоголосый (закадровый), Parovoz Production |
    Информация о звуке #02: 48 kHz, DTS, 5.1, 1510 kbps | Оригинал |
    Субтитры: Русские, английские
    Релиз подготовил: Автор релиза:

    MI
    General
    Unique ID : 229205153779316576312692036090055651542 (0xAC6F4E91777DFDE68D58D34C256470D6)
    Complete name : F: VideoTerm.Life.2016.BDRip.720p.ExKinoRay.mkv
    Format : Matroska
    Format version : Version 4/Version 2
    File size : 5.92 GiB
    Duration : 1h 32mn
    Overall bit rate : 9 138 Kbps
    Movie name : Term.Life.2016.BDRip.720p.ExKinoRay
    Encoded date : UTC 2016-06-28 06: 06: 29
    Writing application : mkvmerge v8.3.0 (;Over the Horizon;) 64bit
    Writing library : libebml v1.3.1 + libmatroska v1.4.2
    Video
    ID : 1
    Format : AVC
    Format/Info : Advanced Video Codec
    Format profile : High@L4.1
    Format settings, CABAC : Yes
    Format settings, ReFrames : 12 frames
    Codec ID : V_MPEG4/ISO/AVC
    Duration : 1h 32mn
    Bit rate : 7 242 Kbps
    Width : 1 280 pixels
    Height : 534 pixels
    Display aspect ratio : 2.40: 1
    Frame rate mode : Constant
    Frame rate : 23.976 (24000/1001) fps
    Color space : YUV
    Chroma subsampling : 4: 2: 0
    Bit depth : 8 bits
    Scan type : Progressive
    Bits/(Pixel*Frame) : 0.442
    Stream size : 4.69 GiB (79%)
    Writing library : x264 core 142 r2431+42 c69a006 tMod 8-bit@all X86_64
    Encoding settings : cabac=1/ref=12/deblock=1: -3: -3/analyse=0x3: 0x133/me=umh/subme=11/psy=1/fade_compensate=0.00/psy_rd=1.05: 1.00/mixed_ref=1/me_range=32/chroma_me=1/trellis=2/8x8dct=1/cqm=0/deadzone=21, 11/fast_pskip=0/chroma_qp_offset=-4/threads=60/lookahead_threads=4/sliced_threads=0/nr=0/decimate=0/interlaced=0/bluray_compat=0/constrained_intra=0/fgo=0/bframes=8/b_pyramid=2/b_adapt=2/b_bias=0/direct=3/weightb=1/open_gop=0/weightp=2/keyint=250/keyint_min=23/scenecut=40/intra_refresh=0/rc_lookahead=60/rc=crf/mbtree=0/crf=17.5000/qcomp=0.60/qpmin=0: 0: 0/qpmax=69: 69: 69/qpstep=4/vbv_maxrate=40000/vbv_bufsize=30000/crf_max=0.0/nal_hrd=none/filler=0/ip_ratio=1.40/pb_ratio=1.30/aq=1: 1.00/aq-sensitivity=10.00/aq-factor=1.00: 1.00: 1.00/aq2=0/aq3=0
    Language : English
    Default : Yes
    Forced : No
    Audio #1
    ID : 2
    Format : AC-3
    Format/Info : Audio Coding 3
    Mode extension : CM (complete main)
    Format settings, Endianness : Big
    Codec ID : A_AC3
    Duration : 1h 32mn
    Bit rate mode : Constant
    Bit rate : 384 Kbps
    Channel(s) : 2 channels
    Channel positions : Front: L R
    Sampling rate : 48.0 KHz
    Frame rate : 31.250 fps (1536 spf)
    Compression mode : Lossy
    Delay relative to video : 96ms
    Stream size : 255 MiB (4%)
    Title : MVO Parovoz Production
    Language : Russian
    Default : Yes
    Forced : No
    Audio #2
    ID : 3
    Format : DTS
    Format/Info : Digital Theater Systems
    Mode : 16
    Format settings, Endianness : Big
    Codec ID : A_DTS
    Duration : 1h 32mn
    Bit rate mode : Constant
    Bit rate : 1 509 Kbps
    Channel(s) : 6 channels
    Channel positions : Front: L C R, Side: L R, LFE
    Sampling rate : 48.0 KHz
    Frame rate : 93.750 fps (512 spf)
    Bit depth : 24 bits
    Compression mode : Lossy
    Stream size : 1 001 MiB (17%)
    Title : riginal
    Language : English
    Default : No
    Forced : No
    Text #1
    ID : 4
    Format : UTF-8
    Codec ID : S_TEXT/UTF8
    Codec ID/Info : UTF-8 Plain Text
    Duration : 1h 31mn
    Bit rate : 97 bps
    Count of elements : 1282
    Stream size : 65.7 KiB (0%)
    Title : Full
    Language : Russian
    Default : No
    Forced : No
    Text #2
    ID : 5
    Format : UTF-8
    Codec ID : S_TEXT/UTF8
    Codec ID/Info : UTF-8 Plain Text
    Duration : 1h 26mn
    Bit rate : 60 bps
    Count of elements : 907
    Stream size : 38.7 KiB (0%)
    Title : Full
    Language : English
    Default : No
    Forced : No
    Text #3
    ID : 6
    Format : UTF-8
    Codec ID : S_TEXT/UTF8
    Codec ID/Info : UTF-8 Plain Text
    Duration : 1h 29mn
    Bit rate : 68 bps
    Count of elements : 1451
    Stream size : 44.5 KiB (0%)
    Title : SDH
    Language : English
    Default : No
    Forced : No
    Menu
    00: 00: 00.000 : en: 00: 00: 00.000
    00: 07: 30.241 : en: 00: 07: 30.241
    00: 13: 04.951 : en: 00: 13: 04.951
    00: 19: 25.623 : en: 00: 19: 25.623
    00: 24: 38.811 : en: 00: 24: 38.811
    00: 28: 01.680 : en: 00: 28: 01.680
    00: 32: 49.467 : en: 00: 32: 49.467
    00: 37: 35.044 : en: 00: 37: 35.044
    00: 42: 13.197 : en: 00: 42: 13.197
    00: 46: 56.981 : en: 00: 46: 56.981
    00: 50: 42.456 : en: 00: 50: 42.456
    00: 55: 20.067 : en: 00: 55: 20.067
    00: 58: 37.305 : en: 00: 58: 37.305
    01: 03: 44.112 : en: 01: 03: 44.112
    01: 07: 57.949 : en: 01: 07: 57.949
    01: 14: 37.848 : en: 01: 14: 37.848
    01: 19: 45.781 : en: 01: 19: 45.781
    01: 21: 29.635 : en: 01: 21: 29.635
    01: 25: 30.083 : en: 01: 25: 30.083
    01: 27: 32.205 : en: 01: 27: 32.205
    Скриншоты


    Онлайн видео Срок жизни


    Размер скачиваемого торрента: 5.92 GB (6356469399 Bytes)

    Срок жизни/Term Life (2016) BDRip 720p от ExKinoRay | L
    загрузка...
    Рейтинг →
     (голосов: 1, оценка 4/5, голосовать можно 1 раз )

    Другие торренты по теме:

  • Срок жизни / Term Life (2016)
  • Срок жизни / Term Life (2016) WEB-DL 720p | L1
  • Срок жизни / Term Life (2016) WEB-DLRip от Generalfilm | КПК
  • Срок жизни / Term Life (2016) HDRip от Paladin777| L


    • Комментарии (0):

      Информация

      Информация

        Посетители, находящиеся в группе Гости, не могут оставлять комментарии в данной новости.

        ↓ Меню



        ↓ Опрос

        А Вы добавили сайт в закладки?
        Да
        Не


        Top 10 за месяц (Фильмы)