.
Авторизация | Регистрация
Хочешь лучшие торренты? Добавь свой email!
Добавить
» » Командный пункт / War Room (2015) BDRip 720p от ExKinoRay | iTunes скачать торрент бесплатно




    Командный пункт / War Room (2015) BDRip 720p от ExKinoRay | iTunes скачать торрент бесплатно

    Опубликовал: Админ | Дата: 28-06-2016, 13:55 | Просмотров: 62



    Детально о кино
    Русское название: Командный пункт
    Русское название в мировом прокате: War Room
    Создали в: 2015
    Категория жанра: Драма
    Главный режиссер: Алекс Кендрик

    Актеры
    Присцилла Эванс Ширер, Т.С. Сталлингс, Карен Эберкромби, Бет Мур, Майкл мл., Джадин Харрис, Алена Питтс, Т.С. Анячонкея

    Сюжет фильма

    Кажущаяся идеальной семья решает решить свои внутренние проблемы с помощью взрослой и мудрой старой девы мисс Клары.

    Снималось в: США
    Киностудия: Affirm Films, FaithStep Films, Red Sky Studios, TriStar Pictures
    Время просмотра: 02: 00: 04
    Перевод текста: Профессиональный многоголосый (закадровый) | iTunes
    Файл
    Кодек для видео: MPEG-4
    Качество фильма: BDRip 720p
    Информация о видео: 1280x534, 5326 Kbit/s, 23.976 fps
    Информация о звуке:
    Информация о звуке #01: 48 kHz, AC3, 5.1, 384 Kbps | Профессиональный многоголосый (закадровый), iTunes |
    Информация о звуке #02: 48 kHz, AC3, 5.1, 640 kbps | Оригинал |
    Субтитры: Русские, английские
    Релиз подготовил: Автор релиза:

    MI
    General
    Unique ID : 196070758421217848419358590970160908011 (0x9381DABF9BC7B074B5005A3F4FC686EB)
    Complete name : F: VideoWar.Room.2015.BDRip.720p.ExKinoRay.mkv
    Format : Matroska
    Format version : Version 4/Version 2
    File size : 5.33 GiB
    Duration : 2h 0mn
    Overall bit rate : 6 353 Kbps
    Movie name : War.Room.2015.BDRip.720p.ExKinoRay
    Encoded date : UTC 2016-06-27 00: 35: 48
    Writing application : mkvmerge v8.3.0 (;Over the Horizon;) 64bit
    Writing library : libebml v1.3.1 + libmatroska v1.4.2
    Video
    ID : 1
    Format : AVC
    Format/Info : Advanced Video Codec
    Format profile : High@L4.1
    Format settings, CABAC : Yes
    Format settings, ReFrames : 12 frames
    Codec ID : V_MPEG4/ISO/AVC
    Duration : 2h 0mn
    Bit rate : 5 326 Kbps
    Width : 1 280 pixels
    Height : 534 pixels
    Display aspect ratio : 2.40: 1
    Frame rate mode : Constant
    Frame rate : 23.976 (24000/1001) fps
    Color space : YUV
    Chroma subsampling : 4: 2: 0
    Bit depth : 8 bits
    Scan type : Progressive
    Bits/(Pixel*Frame) : 0.325
    Stream size : 4.47 GiB (84%)
    Writing library : x264 core 148 r2638+53 bb29004 t_mod_Custom 8-bit@all X86_64
    Encoding settings : cabac=1/ref=12/deblock=1: -3: -3/analyse=0x3: 0x133/me=umh/subme=11/psy=1/fade_compensate=0.00/psy_rd=1.05: 0.00/mixed_ref=1/me_range=48/chroma_me=1/trellis=2/8x8dct=1/cqm=0/deadzone=21, 11/fast_pskip=1/chroma_qp_offset=-2/threads=8/lookahead_threads=1/sliced_threads=0/nr=0/decimate=1/interlaced=0/bluray_compat=0/constrained_intra=0/fgo=0/bframes=9/b_pyramid=2/b_adapt=2/b_bias=0/direct=3/weightb=1/open_gop=0/weightp=2/keyint=250/keyint_min=23/scenecut=40/intra_refresh=0/rc_lookahead=150/rc=crf/mbtree=0/crf=15.6000/qcomp=0.60/qpmin=0: 0: 0/qpmax=69: 69: 69/qpstep=4/vbv_maxrate=50000/vbv_bufsize=62500/crf_max=0.0/nal_hrd=none/filler=0/ip_ratio=1.40/pb_ratio=1.30/aq=3: 0.80/aq-sensitivity=10.00/aq-factor=1.00: 1.00: 1.00/aq2=0/aq3=0
    Language : English
    Default : Yes
    Forced : No
    Audio #1
    ID : 2
    Format : AC-3
    Format/Info : Audio Coding 3
    Mode extension : CM (complete main)
    Format settings, Endianness : Big
    Codec ID : A_AC3
    Duration : 2h 0mn
    Bit rate mode : Constant
    Bit rate : 384 Kbps
    Channel(s) : 6 channels
    Channel positions : Front: L C R, Side: L R, LFE
    Sampling rate : 48.0 KHz
    Frame rate : 31.250 fps (1536 spf)
    Compression mode : Lossy
    Stream size : 330 MiB (6%)
    Title : MVO iTunes
    Language : Russian
    Default : Yes
    Forced : No
    Audio #2
    ID : 3
    Format : AC-3
    Format/Info : Audio Coding 3
    Mode extension : CM (complete main)
    Format settings, Endianness : Big
    Codec ID : A_AC3
    Duration : 2h 0mn
    Bit rate mode : Constant
    Bit rate : 640 Kbps
    Channel(s) : 6 channels
    Channel positions : Front: L C R, Side: L R, LFE
    Sampling rate : 48.0 KHz
    Frame rate : 31.250 fps (1536 spf)
    Compression mode : Lossy
    Stream size : 550 MiB (10%)
    Title : Original
    Language : English
    Default : No
    Forced : No
    Text #1
    ID : 4
    Format : UTF-8
    Codec ID : S_TEXT/UTF8
    Codec ID/Info : UTF-8 Plain Text
    Duration : 1h 58mn
    Bit rate : 98 bps
    Count of elements : 1413
    Stream size : 85.2 KiB (0%)
    Title : Full
    Language : Russian
    Default : No
    Forced : No
    Text #2
    ID : 5
    Format : UTF-8
    Codec ID : S_TEXT/UTF8
    Codec ID/Info : UTF-8 Plain Text
    Duration : 1h 50mn
    Bit rate : 62 bps
    Count of elements : 1379
    Stream size : 51.1 KiB (0%)
    Title : Full
    Language : English
    Default : No
    Forced : No
    Text #3
    ID : 6
    Format : UTF-8
    Codec ID : S_TEXT/UTF8
    Codec ID/Info : UTF-8 Plain Text
    Duration : 1h 58mn
    Bit rate : 67 bps
    Count of elements : 1650
    Stream size : 59.0 KiB (0%)
    Title : SDH
    Language : English
    Default : No
    Forced : No
    Menu
    00: 00: 00.000 : en: Chapter 1
    00: 07: 48.760 : en: Chapter 2
    00: 10: 30.839 : en: Chapter 3
    00: 16: 54.430 : en: Chapter 4
    00: 23: 09.221 : en: Chapter 5
    00: 29: 13.001 : en: Chapter 6
    00: 35: 08.273 : en: Chapter 7
    00: 45: 21.302 : en: Chapter 8
    00: 51: 24.039 : en: Chapter 9
    00: 58: 58.827 : en: Chapter 10
    01: 05: 35.723 : en: Chapter 11
    01: 11: 53.684 : en: Chapter 12
    01: 14: 00.394 : en: Chapter 13
    01: 28: 07.407 : en: Chapter 14
    01: 38: 06.297 : en: Chapter 15
    01: 52: 50.764 : en: Chapter 16
    Скриншоты


    Онлайн видео Командный пункт


    Размер скачиваемого торрента: 5.33 GB (5720708841 Bytes)

    Командный пункт/War Room (2015) BDRip 720p от ExKinoRay | iTunes
    загрузка...
    Рейтинг →
     (голосов: 1, оценка 4/5, голосовать можно 1 раз )

    Другие торренты по теме:

  • Командный пункт / War Room (2015) HDRip | iTunes
  • Командный пункт / War Room (2015) HDRip от Portablius | iTunes


    • Комментарии (0):

      Информация

      Информация

        Посетители, находящиеся в группе Гости, не могут оставлять комментарии в данной новости.

        ↓ Меню



        ↓ Опрос

        А Вы добавили сайт в закладки?
        Да
        Не


        Top 10 за месяц (Фильмы)