.
Авторизация | Регистрация
Хочешь лучшие торренты? Добавь свой email!
Добавить
» » Команда уничтожить / Kill Command (2016) BDRip 1080p от ExKinoRay | L скачать торрент бесплатно




    Команда уничтожить / Kill Command (2016) BDRip 1080p от ExKinoRay | L скачать торрент бесплатно

    Опубликовал: Админ | Дата: 28-06-2016, 05:00 | Просмотров: 127



    Детально о кино
    Русское название: Команда уничтожить
    Русское название в мировом прокате: Kill Command
    Создали в: 2016
    Категория жанра: Ужасы, фантастика, боевик
    Главный режиссер: Стивен Гомез

    Актеры
    Ванесса Кирби, Туре Линдхардт, Дэвид Аджала, Майк Ноубл, Том МакКэй, Бентли Калу, Оси Окерафор, Дебора Росан, Келли Гоф, Тим Ахерн

    Сюжет фильма

    Недалекое будущее. Экспериментальный отряд специальных агентов высаживается на необитаемом острове для прохождения интенсивных боевых учений. Но на острове высадился кто-то еще. И это - не люди...

    Снималось в: Великобритания
    Киностудия: Vertigo Films
    Время просмотра: 01: 39: 15
    Перевод текста: Любительский многоголосый (закадровый) | Parovoz Production
    Файл
    Кодек для видео: MPEG-4
    Качество фильма: BDRip 1080p
    Информация о видео: 1920x800, 13.8 Mbit/s, 24.000 fps
    Информация о звуке:
    Информация о звуке #01: 48 kHz, AC3, 5.1, 384 Kbps | Любительский многоголосый (закадровый), Parovoz Production |
    Информация о звуке #02: 48 kHz, AC3, 5.1, 640 kbps | Оригинал |
    Релиз подготовил: Автор релиза:

    MI
    General
    Unique ID : 188781376061515301390669961301583598468 (0x8E05F873570FB3BDBEA1A377019E1384)
    Complete name : F: VideoKill.Command.2016.BDRip.1080p.ExKinoRay.mkv
    Format : Matroska
    Format version : Version 4/Version 2
    File size : 10.3 GiB
    Duration : 1h 39mn
    Overall bit rate : 14.8 Mbps
    Movie name : Kill.Command.2016.BDRip.1080p.ExKinoRay
    Encoded date : UTC 2016-06-27 22: 29: 33
    Writing application : mkvmerge v8.3.0 (;Over the Horizon;) 64bit
    Writing library : libebml v1.3.1 + libmatroska v1.4.2
    Video
    ID : 1
    Format : AVC
    Format/Info : Advanced Video Codec
    Format profile : High@L4.1
    Format settings, CABAC : Yes
    Format settings, ReFrames : 5 frames
    Codec ID : V_MPEG4/ISO/AVC
    Duration : 1h 39mn
    Bit rate : 13.8 Mbps
    Width : 1 920 pixels
    Height : 800 pixels
    Display aspect ratio : 2.40: 1
    Frame rate mode : Constant
    Frame rate : 24.000 fps
    Color space : YUV
    Chroma subsampling : 4: 2: 0
    Bit depth : 8 bits
    Scan type : Progressive
    Bits/(Pixel*Frame) : 0.374
    Stream size : 9.57 GiB (93%)
    Writing library : x264 core 142 r2431+42 c69a006 DON 8-bit@all X86_64
    Encoding settings : cabac=1/ref=5/deblock=1: -3: -3/analyse=0x3: 0x133/me=umh/subme=11/psy=1/fade_compensate=0.00/psy_rd=1.05: 0.00/mixed_ref=1/me_range=32/chroma_me=1/trellis=2/8x8dct=1/cqm=0/deadzone=21, 11/fast_pskip=0/chroma_qp_offset=-2/threads=12/lookahead_threads=2/sliced_threads=0/nr=0/decimate=0/interlaced=0/bluray_compat=0/constrained_intra=0/fgo=0/bframes=8/b_pyramid=2/b_adapt=2/b_bias=0/direct=3/weightb=1/open_gop=0/weightp=2/keyint=250/keyint_min=24/scenecut=40/intra_refresh=0/rc_lookahead=60/rc=crf/mbtree=0/crf=18.0000/qcomp=0.65/qpmin=0: 0: 0/qpmax=69: 69: 69/qpstep=4/vbv_maxrate=62500/vbv_bufsize=78125/crf_max=0.0/nal_hrd=none/filler=0/ip_ratio=1.30/pb_ratio=1.20/aq=3: 0.80/aq-sensitivity=10.00/aq-factor=1.00: 1.00: 1.00/aq2=0/aq3=0/zones=43505, 46132, crf=16/123996, 124095, crf=15/130502, 130794, crf=14/132870, 141990, crf=22
    Language : English
    Default : Yes
    Forced : No
    Color range : Limited
    Matrix coefficients : BT.709
    Audio #1
    ID : 2
    Format : AC-3
    Format/Info : Audio Coding 3
    Mode extension : CM (complete main)
    Format settings, Endianness : Big
    Codec ID : A_AC3
    Duration : 1h 39mn
    Bit rate mode : Constant
    Bit rate : 384 Kbps
    Channel(s) : 6 channels
    Channel positions : Front: L C R, Side: L R, LFE
    Sampling rate : 48.0 KHz
    Frame rate : 31.250 fps (1536 spf)
    Compression mode : Lossy
    Stream size : 273 MiB (3%)
    Title : MVO Parovoz Production
    Language : Russian
    Default : Yes
    Forced : No
    Audio #2
    ID : 3
    Format : AC-3
    Format/Info : Audio Coding 3
    Mode extension : CM (complete main)
    Format settings, Endianness : Big
    Codec ID : A_AC3
    Duration : 1h 39mn
    Bit rate mode : Constant
    Bit rate : 640 Kbps
    Channel(s) : 6 channels
    Channel positions : Front: L C R, Side: L R, LFE
    Sampling rate : 48.0 KHz
    Frame rate : 31.250 fps (1536 spf)
    Compression mode : Lossy
    Stream size : 456 MiB (4%)
    Title : Original
    Language : English
    Default : No
    Forced : No
    Text #1
    ID : 4
    Format : UTF-8
    Codec ID : S_TEXT/UTF8
    Codec ID/Info : UTF-8 Plain Text
    Duration : 1h 29mn
    Bit rate : 51 bps
    Count of elements : 738
    Stream size : 34.1 KiB (0%)
    Language : Russian
    Default : No
    Forced : No
    Text #2
    ID : 5
    Format : UTF-8
    Codec ID : S_TEXT/UTF8
    Codec ID/Info : UTF-8 Plain Text
    Duration : 1h 32mn
    Bit rate : 32 bps
    Count of elements : 796
    Stream size : 21.7 KiB (0%)
    Language : English
    Default : No
    Forced : No
    Menu
    00: 00: 00.000 : en: 00: 00: 00.000
    00: 07: 15.750 : en: 00: 07: 15.750
    00: 14: 09.667 : en: 00: 14: 09.667
    00: 23: 17.750 : en: 00: 23: 17.750
    00: 32: 02.208 : en: 00: 32: 02.208
    00: 43: 22.083 : en: 00: 43: 22.083
    00: 50: 01.625 : en: 00: 50: 01.625
    00: 58: 01.833 : en: 00: 58: 01.833
    01: 07: 32.000 : en: 01: 07: 32.000
    01: 13: 58.792 : en: 01: 13: 58.792
    01: 23: 59.333 : en: 01: 23: 59.333
    01: 30: 35.792 : en: 01: 30: 35.792
    Скриншоты


    Онлайн видео Команда уничтожить


    Размер скачиваемого торрента: 10.29 GB (11046287038 Bytes)

    Команда уничтожить/Kill Command (2016) BDRip 1080p от ExKinoRay | L
    загрузка...
    Рейтинг →
     (голосов: 1, оценка 3/5, голосовать можно 1 раз )

    Другие торренты по теме:

  • Команда уничтожить / Kill Command (2016) WEB-DLRip | L
  • Команда уничтожить / Kill Command (2016) BDRip 720р от SuperMin | L


    • Комментарии (0):

      Информация

      Информация

        Посетители, находящиеся в группе Гости, не могут оставлять комментарии в данной новости.

        ↓ Меню



        ↓ Опрос

        А Вы добавили сайт в закладки?
        Да
        Не


        Top 10 за месяц (Фильмы)