.
Авторизация | Регистрация
Хочешь лучшие торренты? Добавь свой email!
Добавить
» » Призыв / The Call Up (2016) WEB-DLRip-AVC | L1 скачать торрент бесплатно




    Призыв / The Call Up (2016) WEB-DLRip-AVC | L1 скачать торрент бесплатно

    Опубликовал: Админ | Дата: 28-06-2016, 05:00 | Просмотров: 64



    Детально о кино
    Русское название: Призыв
    Русское название в мировом прокате: The Call Up
    Создали в: 2016
    Категория жанра: фантастика, боевик
    Главный режиссер: Чарльз Баркер

    Актеры
    Кристофер Оби, Паркер Сойерс, Морфидд Кларк, Макс Дикон, Дино Фаззани, Том Бенедикт Найт, Грег Колпакчи, Адриана Рэндолл, Али Кук Мак, Пиетовски

    Сюжет фильма
    Группа элитных онлайн-игроков получает таинственное приглашение от корпорации Заибатцу, испытать в реальной жизни крутую видеоигру — это мечта, перед которой невозможно устоять. Прибыв на полигон, группа получает высокотехнологичную экипировку и готовится к революционной игре. Но то, что начинается как встреча с мечтой, уникальным и волнующим опытом, быстро превращается в зловещую игру. Как только группа подвергается нападению со стороны вражеских военных, они понимают, что это не игра. Сделаешь ошибку — и ты поплатишься жизнью. Теперь этим мастерам компьютерных игр придется бороться за выживание по-настоящему.

    Снималось в: Великобритания/Red Black Films, Stigma Films
    Время просмотра: 01: 30: 29
    Перевод текста: Любительский (одноголосый) Хихикающий доктор
    Файл
    Качество фильма: WEB-DLRip-AVC
    Тип видео: MKV
    Информация о видео: AVC, 2500 Kb/s, 1024x560
    Информация о звуке: Russian: AC3, 192 Kb/s (2 ch), English: AC3, 448 Kb/s (6 ch)
    Субтитры: English
    Дополнительно: Сохранены оригинальные главы


    MediaInfo:
    General
    Unique ID : 197227633558680548092423734706593310502 (0x9460A918B2FD740ADFE851F4C7EFA726)
    Complete name : H: ДИСК?1.ФИЛЬМЫПризыв Смертельная кибер-реальность Thе Cаll Up 2016The Call Up (2016) WEB-DLRip-AVC.mkv
    Format : Matroska
    Format version : Version 4/Version 2
    File size : 1.99 GiB
    Duration : 1h 30mn
    Overall bit rate : 3 144 Kbps
    Writing application : XviD4PSP 7.0.276 DAILY
    Writing library : Lavf57.25.100
    ENCODING_INFO : MATROSKA, WEBM MKV/H264 X264 VBR-2P 2500kbps Произвольный/AC3 AC3 CBR 192kbps/AC3 AC3 CBR 480kbps
    Video
    ID : 1
    Format : AVC
    Format/Info : Advanced Video Codec
    Format profile : High@L4.1
    Format settings, CABAC : Yes
    Format settings, ReFrames : 11 frames
    Codec ID : V_MPEG4/ISO/AVC
    Bit rate : 2 500 Kbps
    Width : 1 024 pixels
    Height : 560 pixels
    Display aspect ratio : 1.85: 1
    Frame rate mode : Variable
    Original frame rate : 23.976 fps
    Color space : YUV
    Chroma subsampling : 4: 2: 0
    Bit depth : 8 bits
    Scan type : Progressive
    Bits/(Pixel*Frame) : 0.182
    Writing library : x264 core 148 r2705M 3f5ed56
    Encoding settings : cabac=1/ref=11/deblock=1: -3: -3/analyse=0x3: 0x133/me=umh/subme=11/psy=1/psy_rd=1.00: 0.20/mixed_ref=1/me_range=32/chroma_me=1/trellis=2/8x8dct=1/cqm=0/deadzone=21, 11/fast_pskip=1/chroma_qp_offset=-3/threads=12/lookahead_threads=2/sliced_threads=0/nr=0/decimate=1/interlaced=0/bluray_compat=0/constrained_intra=0/bframes=8/b_pyramid=2/b_adapt=2/b_bias=0/direct=3/weightb=1/open_gop=0/weightp=2/keyint=230/keyint_min=23/scenecut=40/intra_refresh=0/rc_lookahead=40/rc=2pass/mbtree=1/bitrate=2500/ratetol=1.0/qcomp=0.60/qpmin=0/qpmax=69/qpstep=4/cplxblur=20.0/qblur=0.5/ip_ratio=1.40/aq=1: 1.00
    Language : English
    Default : Yes
    Forced : No
    Color range : Limited
    Color primaries : BT.709
    Transfer characteristics : BT.709
    Matrix coefficients : BT.709
    DURATION : 01: 30: 28.971000000
    Audio #1
    ID : 2
    Format : AC-3
    Format/Info : Audio Coding 3
    Mode extension : CM (complete main)
    Format settings, Endianness : Big
    Codec ID : A_AC3
    Duration : 1h 30mn
    Bit rate mode : Constant
    Bit rate : 192 Kbps
    Channel(s) : 2 channels
    Channel positions : Front: L R
    Sampling rate : 48.0 KHz
    Bit depth : 32 bits
    Compression mode : Lossy
    Stream size : 124 MiB (6%)
    Language : Russian
    Default : Yes
    Forced : No
    DURATION : 01: 30: 28.960000000
    Audio #2
    ID : 3
    Format : AC-3
    Format/Info : Audio Coding 3
    Mode extension : CM (complete main)
    Format settings, Endianness : Big
    Codec ID : A_AC3
    Duration : 1h 30mn
    Bit rate mode : Constant
    Bit rate : 448 Kbps
    Channel(s) : 6 channels
    Channel positions : Front: L C R, Side: L R, LFE
    Sampling rate : 48.0 KHz
    Bit depth : 32 bits
    Compression mode : Lossy
    Stream size : 290 MiB (14%)
    Language : English
    Default : No
    Forced : No
    DURATION : 01: 30: 28.960000000
    Text
    ID : 4
    Format : UTF-8
    Codec ID : S_TEXT/UTF8
    Codec ID/Info : UTF-8 Plain Text
    Language : English
    Default : Yes
    Forced : No
    DURATION : 01: 25: 52.518000000
    Menu
    00: 00: 00.000 : : Opening Sequence
    00: 05: 52.000 : : Why Soxxx?
    00: 11: 25.000 : : It;s A Computer Screen?
    00: 17: 27.000 : : Good Reflexes
    00: 22: 57.000 : : Then Shoot Someone!
    00: 29: 02.000 : : What Was That?
    00: 35: 12.000 : : Your Best Shot
    00: 40: 20.000 : : Floor 17
    00: 46: 38.000 : : Where;s Taylor?
    00: 52: 29.000 : : He Knows The Code
    00: 57: 45.000 : : What Do You See?
    01: 03: 51.000 : : I Couldn;t Help Emma
    01: 09: 26.000 : : Atlas
    01: 15: 40.000 : : I Need A MediPack!
    01: 20: 48.000 : : She;s Waking Up
    01: 27: 11.000 : : End Credits
    Скриншоты


    Онлайн видео Призыв


    Размер скачиваемого торрента: 1.99 GB (2133613804 Bytes)

    Призыв/The Call Up (2016) WEB-DLRip-AVC | L1
    загрузка...
    Рейтинг →
     (голосов: 1, оценка 4/5, голосовать можно 1 раз )

    Другие торренты по теме:

  • Dassler - Призыв к насилию! (2012) MP3
  • Попавший под призыв / Caught in the Draft (1941) DVDRip от egoleshik | Sub
  • Попавший под призыв / Caught in the Draft (1941) DVDRip от KinoRay egoleshik | L1


    • Комментарии (0):

      Информация

      Информация

        Посетители, находящиеся в группе Гости, не могут оставлять комментарии в данной новости.

        ↓ Меню



        ↓ Опрос

        А Вы добавили сайт в закладки?
        Да
        Не


        Top 10 за месяц (Фильмы)