.
Авторизация | Регистрация
Хочешь лучшие торренты? Добавь свой email!
Добавить
» » Убежать, догнать, влюбиться (2015) WEB-DL 720p скачать торрент бесплатно




    Убежать, догнать, влюбиться (2015) WEB-DL 720p скачать торрент бесплатно

    Опубликовал: Админ | Дата: 27-06-2016, 05:00 | Просмотров: 17



    Детально о кино
    Русское название: Убежать, догнать, влюбиться
    Русское название в мировом прокате: Убежать, догнать, влюбиться
    Создали в: 2015
    Категория жанра: комедия
    Главный режиссер: Михаил Шевчук

    Актеры
    Любовь Аксенова, Константин Крюков, Владимир Этуш, Владимир Зельдин, Юсуп Омаров, Юлика Вагнер, Александр Резалин, Марина Губина, Мария Кудрявцева

    Сюжет фильма
    Борис сбегает от своей австрийской невесты на Северный Кавказ, где по воле случая становится учителем музыки для местной девушки Нины. Нина не хочет выходить замуж за жениха, найденного отцом, и всеми силами пытается оттянуть свадьбу. В этом ей помогает Борис: он решает украсть Нину по местному обычаю, и теперь они вынуждены скрываться не только от ее жениха, но и от внезапно прилетевшей невесты Бориса.


    Снималось в: Россия/Art Pictures Studio
    Время просмотра: 01: 18: 59
    Тип перевода: Оригинальное
    Файл
    Тип видео: MKV
    Качество фильма: WEB-DL 720p
    Информация о видео: MPEG-4 AVC, 3946 kb/s, 960x536@1280x536
    Информация о звуке: AC3, 192 kb/s (2 ch)
    MI

    Format : Matroska
    Format version : Version 4/Version 2
    File size : 2.33 GiB
    Duration : 1h 18mn
    Overall bit rate : 4 222 Kbps
    Encoded date : UTC 2016-06-26 04: 24: 51
    Writing application : mkvmerge v6.8.0 (;Theme for Great Cities;) 64bit built on Mar 2 2014 21: 34: 26
    Writing library : libebml v1.3.0 + libmatroska v1.4.1
    Video
    ID : 1
    Format : AVC
    Format/Info : Advanced Video Codec
    Format profile : Main@L3.1
    Format settings, CABAC : No
    Format settings, ReFrames : 2 frames
    Codec ID : V_MPEG4/ISO/AVC
    Duration : 1h 18mn
    Bit rate : 3 946 Kbps
    Width : 960 pixels
    Height : 536 pixels
    Display aspect ratio : 2.40: 1
    Frame rate mode : Constant
    Frame rate : 25.000 fps
    Color space : YUV
    Chroma subsampling : 4: 2: 0
    Bit depth : 8 bits
    Scan type : Progressive
    Bits/(Pixel*Frame) : 0.307
    Stream size : 2.18 GiB (93%)
    Language : English
    Default : Yes
    Forced : No
    Color range : Limited
    Color primaries : BT.709
    Transfer characteristics : BT.709
    Matrix coefficients : BT.709
    Audio
    ID : 2
    Format : AC-3
    Format/Info : Audio Coding 3
    Mode extension : CM (complete main)
    Format settings, Endianness : Big
    Codec ID : A_AC3
    Duration : 1h 18mn
    Bit rate mode : Constant
    Bit rate : 192 Kbps
    Channel(s) : 2 channels
    Channel positions : Front: L R
    Sampling rate : 48.0 KHz
    Bit depth : 16 bits
    Compression mode : Lossy
    Stream size : 108 MiB (5%)
    Language : Russian
    Default : Yes
    Forced : No
    Menu
    00: 00: 00.000 : en: Р“Рава 1
    00: 05: 07.640 : en: Р“Рава 2
    00: 10: 12.040 : en: Р“Рава 3
    00: 16: 18.040 : en: Р“Рава 4
    00: 22: 06.040 : en: Р“Рава 5
    00: 27: 28.040 : en: Р“Рава 6
    00: 33: 25.000 : en: Р“Рава 7
    00: 38: 32.640 : en: Р“Рава 8
    00: 43: 53.080 : en: Р“Рава 9
    00: 49: 07.800 : en: Р“Рава 10
    00: 54: 17.920 : en: Р“Рава 11
    01: 00: 30.920 : en: Р“Рава 12
    01: 06: 24.960 : en: Р“Рава 13
    01: 12: 24.440 : en: Р“Рава 14
    Скриншоты





    Онлайн видео Убежать, догнать, влюбиться (2015) WEB


    Размер скачиваемого торрента: 2.33 GB (2501002073 Bytes)

    Убежать, догнать, влюбиться (2015) WEB-DL 720p
    загрузка...
    Рейтинг →
     (голосов: 1, оценка 4/5, голосовать можно 1 раз )

    Другие торренты по теме:



      Комментарии (0):

      Информация

      Информация

        Посетители, находящиеся в группе Гости, не могут оставлять комментарии в данной новости.

        ↓ Меню



        ↓ Опрос

        А Вы добавили сайт в закладки?
        Да
        Не


        Top 10 за месяц (Фильмы)