.
Авторизация | Регистрация
Хочешь лучшие торренты? Добавь свой email!
Добавить




Дорога (1955) SATRip от New-Team скачать торрент бесплатно

Опубликовал: Админ | Дата: 27-06-2016, 05:00 | Просмотров: 24



Снималось в: СССР
Создали в: Мосфильм
Категория жанра: боевик, приключения
Создали в: 1955
Время просмотра: 01: 36: 41
Перевод текста: Не требуется
Субтитры подготовлены: нет
Оригинальная аудиодорожка: русский
Главный режиссер: Александр Столпер

Актеры

Андрей Попов, Виталий Доронин, Николай Гриценко, Тамара Логинова, Лев Свердлин, Виктор Авдюшко, Евгений Матвеев, Евгений Леонов, Григорий Михайлов, Владимир Кенигсон, Тахир Сабиров, Павел Винников, Николай Сергеев, Борис Битюков, Николай Борисенко...
Полный список актёров
Описание:
На одной из автостанций горной дороги Дальнего Востока из-за снегопадов застряли десятки машин с пассажирами и срочным грузом. Под вечер на станцию прибывают еще два пассажира - капитан госбезопасности и иностранный турист. Утром, несмотря на пургу, автоколонна направляется на штурм перевала. Никто не подозревает, что капитан сопровождает диверсанта, назначившего встречу на перевале.



Источник: DVB
Качество фильма видео: SATRip
Тип видео видео: AVI
Информация о видео: 688x512 (4: 3), 25 fps, XviD ~ 1961 kbps avg, 0.223 bit/pixel
Информация о звуке: 48 kHz, Dolby Digital AC3 2.0, 192 kbps
Раздача от:
MediaInfo

Общее
Полное имя : Doroga.1955.SATRip_New-team_by_AVP_Studio.avi
Формат : AVI
Формат/Информация : Audio Video Interleave
Размер файла : 1, 46 Гбайт
Продолжительность : 1 ч. 36 м.
Общий поток : 2163 Кбит/сек
Программа кодирования : VirtualDubMod 1.5.10.3 | www.virtualdub-fr.org || (build 2550/release)
Библиотека кодирования : VirtualDubMod build 2550/release
Видео
Идентификатор : 0
Формат : MPEG-4 Visual
Профиль формата : Advanced Simple@L5
Параметр BVOP формата : 1
Параметр QPel формата : Нет
Параметр GMC формата : Без точки перехода
Параметр матрицы формата : Выборочная
Идентификатор кодека : XVID
Идентификатор кодека/Подсказка : XviD
Продолжительность : 1 ч. 36 м.
Битрейт : 1961 Кбит/сек
Ширина : 688 пикселей
Высота : 512 пикселей
Соотношение сторон : 4: 3
Частота кадров : 25, 000 кадров/сек
Цветовое пространство : YUV
Субдискретизация насыщенности : 4: 2: 0
Битовая глубина : 8 бит
Тип развёртки : Прогрессивная
Метод сжатия : С потерями
Бит/(Пиксели*Кадры) : 0.223
Размер потока : 1, 32 Гбайт (91%)
Библиотека кодирования : XviD 1.2.1 (UTC 2008-12-04)
Аудио
Идентификатор : 1
Формат : AC-3
Формат/Информация : Audio Coding 3
Расширение режима : CM (complete main)
Параметр Endianness формата : Big
Идентификатор кодека : 2000
Продолжительность : 1 ч. 36 м.
Вид битрейта : Постоянный
Битрейт : 192 Кбит/сек
Каналы : 2 канала
Расположение каналов : Front: L R
Частота : 48, 0 КГц
Частота кадров : 31, 250 кадров/сек (1536 spf)
Метод сжатия : С потерями
Размер потока : 133 Мбайт (9%)
Выравнивание : Разделение по промежуткам
Продолжительность промежутка : 40 мс. (1, 00 видеокадр)
Время предзагрузки промежутка : 500 мс

Скриншоты



Залил: AVPStudio

Онлайн видео Дорога (1955) SATRip от New


Размер скачиваемого торрента: 1.46 GB (1568024576 Bytes)

Дорога (1955) SATRip от New-Team
загрузка...
Рейтинг →
 (голосов: 1, оценка 5/5, голосовать можно 1 раз )

Другие торренты по теме:

  • Главная дорога (2012) SATRip
  • Главная дорога (2013) SATRip
  • Секретные территории. Дорога к Вратам судьбы (2013) SATRip
  • Долгая дорога домой (2013) SATRip от РиперАМ
  • Минута славы. Дорога на Олимп! (2013) SATRip скачать через торрент бесплатно
  • Дорога домой / The Way Home (2010) SATRip от ClubTorrent | P2
  • Реальная дорога (2013) SATRip от HitWay скачать через торрент бесплатно
  • Главная дорога (2014) SATRip


    • Комментарии (0):

      Информация

      Информация

        Посетители, находящиеся в группе Гости, не могут оставлять комментарии в данной новости.

        ↓ Меню



        ↓ Опрос

        А Вы добавили сайт в закладки?
        Да
        Не


        Top 10 за месяц (Фильмы)