.
Авторизация | Регистрация
Хочешь лучшие торренты? Добавь свой email!
Добавить
» » Варкрафт / Warcraft (2016) TC 1080p | Line скачать торрент бесплатно




    Варкрафт / Warcraft (2016) TC 1080p | Line скачать торрент бесплатно

    Опубликовал: Админ | Дата: 26-06-2016, 05:00 | Просмотров: 135



    Детально о кино
    Русское название: Варкрафт
    Русское название в мировом прокате: Warcraft
    Создали в: 2016
    Категория жанра: фэнтези, боевик, приключения
    Главный режиссер: Дункан Джонс

    Актеры
    Трэвис Фиммел, Пола Пэттон, Бен Фостер, Доминик Купер, Тоби Кеббелл, Бен Шнетцер, Роберт Казински, Клэнси Браун, Дэниэл Ву, Рут Негга

    Сюжет фильма

    Веками магия и неприступные стены защищали людей от любых напастей. Но древнее зло, побежденное и забытое тысячелетия назад, пробудилось. В самом сердце королевства открылся темный портал, и раса невиданных существ наводнила земли Азерота. Так начались события, призванные навсегда изменить судьбу этого мира.

    Снималось в: Китай, Канада, США
    Киностудия: Atlas Entertainment, Blizzard Entertainment, Legendary Pictures, Universal Pictures
    Время просмотра: 02: 03: 53
    Перевод текста: Дублированный Line
    Файл
    Кодек для видео: H.264
    Качество фильма: Telecine 1080p
    Информация о видео: AVC, 1920x800 (2.40: 1), 29.970 fps ~ 6540 Kbps
    Информация о звуке:
    AC3, 48 KHz 2 ch ~ 384 Kb/s (русский)
    AC3, 48 KHz 6 ch ~ 448 Kb/s (английский)
    Субтитры: китайские вшитые
    MI:

    Общее
    Уникальный идентификатор : 254295275259951135098510350717935541769 (0xBF4F7D108F5329F0AD1606CD2F11DE09)
    Полное имя : Q: TorFWarcraft.2016.D.2100.TC 1080.mkv
    Формат : Matroska
    Версия формата : Version 4/Version 2
    Размер файла : 6, 51 Гбайт
    Продолжительность : 2 ч. 3 м.
    Общий поток : 7522 Кбит/сек
    Дата кодирования : UTC 2016-06-12 16: 00: 48
    Программа кодирования : mkvmerge v8.3.0 (;Over the Horizon;) 64bit
    Библиотека кодирования : libebml v1.3.1 + libmatroska v1.4.2
    Видео
    Идентификатор : 1
    Формат : AVC
    Формат/Информация : Advanced Video Codec
    Профиль формата : High@L4.1
    Параметр CABAC формата : Да
    Параметр ReFrames формата : 4 кадра
    Идентификатор кодека : V_MPEG4/ISO/AVC
    Продолжительность : 2 ч. 3 м.
    Битрейт : 6541 Кбит/сек
    Ширина : 1920 пикселей
    Высота : 800 пикселей
    Соотношение сторон : 2, 40: 1
    Частота кадров : 29, 970 кадров/сек
    Цветовое пространство : YUV
    Субдискретизация насыщенности : 4: 2: 0
    Битовая глубина : 8 бит
    Тип развёртки : Прогрессивная
    Бит/(Пиксели*Кадры) : 0.142
    Размер потока : 5, 66 Гбайт (87%)
    Библиотека кодирования : x264 core 148 r2694 3b70645
    Настройки программы : cabac=1/ref=3/deblock=1: 0: 0/analyse=0x3: 0x113/me=hex/subme=7/psy=1/psy_rd=1.00: 0.00/mixed_ref=1/me_range=16/chroma_me=1/trellis=1/8x8dct=1/cqm=0/deadzone=21, 11/fast_pskip=1/chroma_qp_offset=-2/threads=9/lookahead_threads=1/sliced_threads=0/nr=0/decimate=1/interlaced=0/bluray_compat=0/constrained_intra=0/bframes=3/b_pyramid=2/b_adapt=1/b_bias=0/direct=1/weightb=1/open_gop=0/weightp=2/keyint=250/keyint_min=25/scenecut=40/intra_refresh=0/rc_lookahead=40/rc=crf/mbtree=1/crf=21.0/qcomp=0.60/qpmin=0/qpmax=69/qpstep=4/vbv_maxrate=62500/vbv_bufsize=78125/crf_max=0.0/nal_hrd=none/filler=0/ip_ratio=1.40/aq=1: 1.00
    Язык : English
    Default : Да
    Forced : Да
    Коэффициенты матрицы : BT.709-5, BT.1361, IEC 61966-2-4 709, SMPTE RP177
    Аудио #1
    Идентификатор : 2
    Формат : AC-3
    Формат/Информация : Audio Coding 3
    Расширение режима : CM (complete main)
    Идентификатор кодека : A_AC3
    Продолжительность : 2 ч. 3 м.
    Вид битрейта : Постоянный
    Битрейт : 384 Кбит/сек
    Каналы : 2 канала
    Расположение каналов : Front: L R
    Частота : 48, 0 КГц
    Битовая глубина : 16 бит
    Метод сжатия : С потерями
    Размер потока : 340 Мбайт (5%)
    Язык : Russian
    Default : Да
    Forced : Нет
    Аудио #2
    Идентификатор : 3
    Формат : AC-3
    Формат/Информация : Audio Coding 3
    Расширение режима : CM (complete main)
    Идентификатор кодека : A_AC3
    Продолжительность : 2 ч. 3 м.
    Вид битрейта : Постоянный
    Битрейт : 448 Кбит/сек
    Каналы : 6 каналов
    Расположение каналов : Front: L C R, Side: L R, LFE
    Частота : 48, 0 КГц
    Битовая глубина : 16 бит
    Метод сжатия : С потерями
    Размер потока : 397 Мбайт (6%)
    Язык : English
    Default : Нет
    Forced : Нет

    Семпл
    Скриншоты


    Онлайн видео Варкрафт


    Размер скачиваемого торрента: 6.51 GB (6989866109 Bytes)

    Варкрафт/Warcraft (2016) TC 1080p | Line
    загрузка...
    Рейтинг →
     (голосов: 1, оценка 5/5, голосовать можно 1 раз )

    Другие торренты по теме:

  • Варкрафт / Warcraft (2016) WEBRip 1080p | Трейлер#2
  • Варкрафт / Warcraft (2016)
  • Варкрафт / Warcraft (2016) CAMRip | D
  • Варкрафт / Warcraft (2016) CAMRip *Proper* | D
  • Варкрафт / Warcraft (2016) ТС | D | звук с CAMRip
  • Варкрафт / Warcraft (2016) ТС 720р | D | звук с CAMRip
  • Варкрафт / Warcraft (2016) TC 720p | Line
  • Варкрафт / Warcraft (2016) WEBRip-AVC от Vovan366 | D | Line


    • Комментарии (0):

      Информация

      Информация

        Посетители, находящиеся в группе Гости, не могут оставлять комментарии в данной новости.

        ↓ Меню



        ↓ Опрос

        А Вы добавили сайт в закладки?
        Да
        Не


        Top 10 за месяц (Фильмы)