.
Авторизация | Регистрация
Хочешь лучшие торренты? Добавь свой email!
Добавить
» » Королева пустыни / Queen of the Desert (2015) BDRemux 1080p от ExKinoRay | P скачать торрент бесплатно




    Королева пустыни / Queen of the Desert (2015) BDRemux 1080p от ExKinoRay | P скачать торрент бесплатно

    Опубликовал: Админ | Дата: 26-06-2016, 05:00 | Просмотров: 83



    Детально о кино
    Русское название: Королева пустыни
    Русское название в мировом прокате: Queen of the Desert
    Создали в: 2015
    Категория жанра: Драма, биография, исторический
    Главный режиссер: Вернер Херцог

    Актеры
    Джеймс Франко, Николь Кидман, Роберт Паттинсон, Дэмиэн Льюис, Дженни Агаттер, Холли Эрл, Дэвид Колдер, Бет Годдар, Джихад Абду, Марк Льюис Джонс

    Сюжет фильма

    В центре сюжета фильма, созданного мастером режиссуры Вернером Херцоом, – история жизни английской писательницы начала ХХ столетия Гертруды Белл. Это был разносторонний человек, которому удавалось совмещать много интересов и дел. Белл, кроме всего прочего, профессиональный картограф, археолог, атташе Британской империи. По роду службы ей пришлось путешествовать по Ближнему Востоку. Эта образованная женщина умела провести уникальные исследования, полезные результаты которых оценили и на ее родине, и в бедуинских племенах. Долгое время Гертруда Белл дружила с офицером Томасом Эдвардсом Лоуренсом, которого больше знают в мире как Лоуренса Аравийского. Эти британцы оказали заметное влияние на становление политических режимов ближневосточных стран.

    Снималось в: США, Марокко
    Киностудия: Benaroya Pictures, H Films, Raslan Company of America
    Время просмотра: 02: 08: 08
    Перевод текста: Профессиональный многоголосый (закадровый)
    Файл
    Кодек для видео: MPEG-4
    Качество фильма: BDRemux 1080p
    Информация о видео: 1920x1080, 24.0 Mbit/s, 23.976 fps
    Информация о звуке:
    Информация о звуке #01: 48 kHz, AC3, 2.0, 192 Kbps | Профессиональный многоголосый (закадровый) |
    Информация о звуке #02: 48 kHz, DTS-HD MA, 5.1, 1807 kbps | Оригинал |
    Релиз подготовил: Автор релиза:

    MI
    General
    Unique ID : 188369268370411517814472908666786399003 (0x8DB699F90002A916A4636FB3EB19C31B)
    Complete name : F: VideoQueen.of.the.Desert.2015.BDREMUX.1080p.ExKinoRay.mkv
    Format : Matroska
    Format version : Version 4/Version 2
    File size : 23.3 GiB
    Duration : 2h 8mn
    Overall bit rate mode : Variable
    Overall bit rate : 26.0 Mbps
    Movie name : Queen.of.the.Desert.2015.BDREMUX.1080p.ExKinoRay
    Encoded date : UTC 2016-06-25 13: 59: 50
    Writing application : mkvmerge v8.3.0 (;Over the Horizon;) 64bit
    Writing library : libebml v1.3.1 + libmatroska v1.4.2
    Video
    ID : 1
    Format : AVC
    Format/Info : Advanced Video Codec
    Format profile : High@L4.1
    Format settings, CABAC : Yes
    Format settings, ReFrames : 4 frames
    Codec ID : V_MPEG4/ISO/AVC
    Duration : 2h 8mn
    Bit rate mode : Variable
    Bit rate : 24.0 Mbps
    Maximum bit rate : 35.0 Mbps
    Width : 1 920 pixels
    Height : 1 080 pixels
    Display aspect ratio : 16: 9
    Frame rate mode : Constant
    Frame rate : 24.000 fps
    Standard : NTSC
    Color space : YUV
    Chroma subsampling : 4: 2: 0
    Bit depth : 8 bits
    Scan type : Progressive
    Bits/(Pixel*Frame) : 0.482
    Stream size : 21.5 GiB (92%)
    Title : Queen.of.the.Desert.2015.BDREMUX.1080p.ExKinoRay.***selezen***
    Language : English
    Default : Yes
    Forced : No
    Color range : Limited
    Color primaries : BT.709
    Transfer characteristics : BT.709
    Matrix coefficients : BT.709
    Audio #1
    ID : 2
    Format : AC-3
    Format/Info : Audio Coding 3
    Mode extension : CM (complete main)
    Format settings, Endianness : Big
    Codec ID : A_AC3
    Duration : 2h 8mn
    Bit rate mode : Constant
    Bit rate : 192 Kbps
    Channel(s) : 2 channels
    Channel positions : Front: L R
    Sampling rate : 48.0 KHz
    Frame rate : 31.250 fps (1536 spf)
    Compression mode : Lossy
    Stream size : 176 MiB (1%)
    Title : MVO
    Language : Russian
    Default : Yes
    Forced : No
    Audio #2
    ID : 3
    Format : DTS
    Format/Info : Digital Theater Systems
    Format profile : MA/Core
    Mode : 16
    Format settings, Endianness : Big
    Codec ID : A_DTS
    Duration : 2h 8mn
    Bit rate mode : Variable/Constant
    Bit rate : 1 807 Kbps/1 509 Kbps
    Channel(s) : 6 channels
    Channel positions : Front: L C R, Side: L R, LFE
    Sampling rate : 48.0 KHz
    Frame rate : 93.750 fps (512 spf)
    Bit depth : 16 bits
    Compression mode : Lossless/Lossy
    Stream size : 1.62 GiB (7%)
    Title : Original
    Language : English
    Default : No
    Forced : No
    Menu
    00: 00: 00.000 : en: Chapter 01
    00: 11: 11.291 : en: Chapter 02
    00: 21: 48.625 : en: Chapter 03
    00: 31: 56.291 : en: Chapter 04
    00: 41: 19.375 : en: Chapter 05
    00: 53: 08.916 : en: Chapter 06
    01: 03: 13.791 : en: Chapter 07
    01: 15: 03.083 : en: Chapter 08
    01: 24: 12.041 : en: Chapter 09
    01: 35: 03.625 : en: Chapter 10
    01: 45: 43.500 : en: Chapter 11
    01: 56: 54.958 : en: Chapter 12
    Скриншоты


    Онлайн видео Королева пустыни


    Размер скачиваемого торрента: 23.27 GB (24991233719 Bytes)

    Королева пустыни/Queen of the Desert (2015) BDRemux 1080p от ExKinoRay | P
    загрузка...
    Рейтинг →
     (голосов: 1, оценка 4/5, голосовать можно 1 раз )

    Другие торренты по теме:

  • Джорджина Хауэлл - Королева пустыни (2015) FB2, EPUB
  • Королева пустыни / Queen of the Desert (2015) HDRip от Twi7ter | L2
  • Королева пустыни / Queen of the Desert (2015) HDRip от torrentfilm | L2
  • Королева пустыни / Queen of the Desert (2015) BDRip 1080p | P


    • Комментарии (0):

      Информация

      Информация

        Посетители, находящиеся в группе Гости, не могут оставлять комментарии в данной новости.

        ↓ Меню



        ↓ Опрос

        А Вы добавили сайт в закладки?
        Да
        Не


        Top 10 за месяц (Фильмы)