.
Авторизация | Регистрация
Хочешь лучшие торренты? Добавь свой email!
Добавить
» » Челюсти 4: Месть / Jaws 4: The Revenge (1987) BDRip от Sem-te | P, A скачать торрент бесплатно




    Челюсти 4: Месть / Jaws 4: The Revenge (1987) BDRip от Sem-te | P, A скачать торрент бесплатно

    Опубликовал: Админ | Дата: 25-06-2016, 05:00 | Просмотров: 72



    Снималось в: США
    Категория жанра: ужасы, триллер, приключения
    Создали в: 1987
    Время просмотра: 01: 30: 10
    Перевод текста: Профессиональный (многоголосый закадровый) ОРТ
    Перевод текста 2: Профессиональный (многоголосый закадровый) СТС
    Перевод текста 3: Авторский (одноголосый закадровый) Юрий Живов
    Перевод текста 4: Авторский (одноголосый закадровый) Андрей Гаврилов
    Перевод текста 5: Авторский (одноголосый закадровый) Александр Готлиб
    Субтитры подготовлены: русские, английские
    Оригинальная аудиодорожка: английский
    Главный режиссер: Джозеф Сарджент/Joseph Sargent

    Актеры
    Лоррэйн Гари, Лэнс Гест, Марио Ван Пиблз, Карен Янг, Майкл Кейн, Джудит Барси, Митчелл Андерсон, Линн Уитфилд, Джей Мелло, Седрик Скотт
    Описание: Герой первых трех серий шеф полиции Мартин Броди умирает от сердечного приступа. Его младший сын погибает, столкнувшись с большой белой акулой. Мать Шона Эллен убеждена, что акула мстит ее семье. Миссис Броди летит на Багамы, где ее старший сын Майкл работает морским биологом, чтобы предупредить об опасности... (Иванов М.)
    Доп. информация: За синхронизацию звуковых дорожек спасибо Нордер .

    Автор рипа: Sem-te
    Релиз подготовил:
    Исходник: Jaws.The.Revenge.1987.1080p.BluRay.AVC.DTS-HD.MA.5.1-FGT
    Качество фильма видео: BDRip
    Тип видео видео: AVI
    Информация о видео: 720x304 (2.37: 1), 23.976 fps, XviD build 73 ~1739 kbps avg, 0.33 bit/pixel
    Информация о звуке 1: 48 kHz, AC3 Dolby Digital, 2/0 (L, R) ch, ~192 kbps | ОРТ
    Информация о звуке 2: 48 kHz, AC3 Dolby Digital, 2/0 (L, R) ch, ~192 kbps | СТС
    Информация о звуке 3: 48 kHz, AC3 Dolby Digital, 2/0 (L, R) ch, ~192 kbps | Юрий Живов
    Информация о звуке 4: 48 kHz, AC3 Dolby Digital, 2/0 (L, R) ch, ~192 kbps | Андрей Гаврилов (отдельно)
    Информация о звуке 5: 48 kHz, AC3 Dolby Digital, 2/0 (L, R) ch, ~192 kbps | Александр Готлиб (отдельно)
    Информация о звуке 6: 48 kHz, AC3 Dolby Digital, 3/2 (L, C, R, l, r) + LFE ch, ~448.00 kbps avg | Eng (отдельно)
    MediaInfo

    General
    Format : AVI
    Format/Info : Audio Video Interleave
    File size : 1.47 GiB
    Duration : 1h 30mn
    Overall bit rate : 2 336 Kbps
    Writing application : VirtualDubMod 1.5.10.3 | www.virtualdub-fr.org || (build 2550/release)
    Writing library : VirtualDubMod build 2550/release
    Video
    ID : 0
    Format : MPEG-4 Visual
    Format profile : Advanced Simple@L5
    Format settings, BVOP : 1
    Format settings, QPel : No
    Format settings, GMC : No warppoints
    Format settings, Matrix : Custom
    Codec ID : XVID
    Codec ID/Hint : XviD
    Duration : 1h 30mn
    Bit rate : 1 741 Kbps
    Width : 720 pixels
    Height : 304 pixels
    Display aspect ratio : 2.35: 1
    Frame rate : 23.976 fps
    Color space : YUV
    Chroma subsampling : 4: 2: 0
    Bit depth : 8 bits
    Scan type : Progressive
    Compression mode : Lossy
    Bits/(Pixel*Frame) : 0.332
    Stream size : 1.10 GiB (75%)
    Writing library : XviD 73
    Audio #1
    ID : 1
    Format : AC-3
    Format/Info : Audio Coding 3
    Mode extension : CM (complete main)
    Format settings, Endianness : Big
    Codec ID : 2000
    Duration : 1h 30mn
    Bit rate mode : Constant
    Bit rate : 192 Kbps
    Channel(s) : 2 channels
    Channel positions : Front: L R
    Sampling rate : 48.0 KHz
    Bit depth : 16 bits
    Compression mode : Lossy
    Stream size : 124 MiB (8%)
    Alignment : Split accross interleaves
    Interleave, duration : 42 ms (1.00 video frame)
    Interleave, preload duration : 500 ms
    Audio #2
    ID : 2
    Format : AC-3
    Format/Info : Audio Coding 3
    Mode extension : CM (complete main)
    Format settings, Endianness : Big
    Codec ID : 2000
    Duration : 1h 30mn
    Bit rate mode : Constant
    Bit rate : 192 Kbps
    Channel(s) : 2 channels
    Channel positions : Front: L R
    Sampling rate : 48.0 KHz
    Bit depth : 16 bits
    Compression mode : Lossy
    Stream size : 124 MiB (8%)
    Alignment : Split accross interleaves
    Interleave, duration : 42 ms (1.00 video frame)
    Interleave, preload duration : 500 ms
    Audio #3
    ID : 3
    Format : AC-3
    Format/Info : Audio Coding 3
    Mode extension : CM (complete main)
    Format settings, Endianness : Big
    Codec ID : 2000
    Duration : 1h 30mn
    Bit rate mode : Constant
    Bit rate : 192 Kbps
    Channel(s) : 2 channels
    Channel positions : Front: L R
    Sampling rate : 48.0 KHz
    Bit depth : 16 bits
    Compression mode : Lossy
    Stream size : 124 MiB (8%)
    Alignment : Split accross interleaves
    Interleave, duration : 42 ms (1.00 video frame)
    Interleave, preload duration : 500 ms

    Скриншоты




    Онлайн видео Челюсти 4: Месть


    Размер скачиваемого торрента: 2.00 GB (2142786318 Bytes)

    Челюсти 4: Месть/Jaws 4: The Revenge (1987) BDRip от Sem-te | P, A
    загрузка...
    Рейтинг →
     (голосов: 1, оценка 4/5, голосовать можно 1 раз )

    Другие торренты по теме:

  • Челюсти 4: Месть / Jaws 4: The Revenge (1987) BDRemux 1080p от Sem-te | P, P2, A


    • Комментарии (0):

      Информация

      Информация

        Посетители, находящиеся в группе Гости, не могут оставлять комментарии в данной новости.

        ↓ Меню



        ↓ Опрос

        А Вы добавили сайт в закладки?
        Да
        Не


        Top 10 за месяц (Фильмы)