.
Авторизация | Регистрация
Хочешь лучшие торренты? Добавь свой email!
Добавить
» » Убить священника / To Kill a Priest (1988) WEB-DL 720p | P, P2 скачать торрент бесплатно




    Убить священника / To Kill a Priest (1988) WEB-DL 720p | P, P2 скачать торрент бесплатно

    Опубликовал: Админ | Дата: 25-06-2016, 05:00 | Просмотров: 54



    Детально о кино
    Русское название: Убить священника
    Русское название в мировом прокате: To Kill a Priest
    Создали в: 1988
    Категория жанра: триллер, драма, история, биография
    Главный режиссер: Агнешка Холланд

    Актеры

    Кристофер Ламберт— отец Алек, Эд Харрис— Стефан, Джосс Экленд— полковник, Тим Рот— Феликс, Тимоти Сполл— Игорь, Пит Постлетуэйт— Джозеф, Дэвид Суше— епископ.

    Сюжет фильма

    Варшава, начало 1980-х. Профсоюзное движение Солидарность, ставшее, по сути, параллельной властью в стране, берет курс на конфронтацию с официальной властью. Католический священник Отец Алек, связанный с организацией, всячески способствует сплочению ее членов. Агент тайной полиции Штефана получает задание убить священника.

    Снималось в: ФранцияСША
    Киностудия: Columbia Pictures Corporation, France 3 Cin?ma, J.P. Productions, Sofica Valor
    Время просмотра: 01: 57: 13
    Перевод текста: Профессиональный многоголосый, Профессиональный двухголосый, Оригинал
    Файл
    Качество фильма: WEB-DL 720p
    Информация о видео: 1280x716 (16: 9), 23.976 fps, MPEG-4 AVC, 3999 Kbps
    Информация о звуке:
    Информация о звуке #1: AC3, 192 Kbps, 48.0 KHz, 2 ch (Rus)Профессиональный многоголосый, Первый канал
    Информация о звуке #2: AC3, 192 Kbps, 48.0 KHz, 2 ch (Rus)Профессиональный двухголосый, НТВ+
    Информация о звуке #3: AC3, 192 Kbps, 48.0 KHz, 2 ch (Eng)Оригинал
    Субтитры: Английские
    Скриншоты


    MediaInfo
    Формат : Matroska
    Версия формата : Version 2
    Размер файла : 3, 82 Гбайт
    Продолжительность : 1 ч. 57 м.
    Общий поток : 4668 Кбит/сек
    Название фильма :
    Дата кодирования : UTC 2016-06-24 09: 55: 01
    Программа кодирования : mkvmerge v5.4.0 (;Piper;) built on Mar 10 2012 13: 34: 39
    Библиотека кодирования : libebml v1.2.3 + libmatroska v1.3.0
    Видео
    Идентификатор : 1
    Формат : AVC
    Формат/Информация : Advanced Video Codec
    Профиль формата : High@L3.1
    Параметр CABAC формата : Нет
    Параметр ReFrames формата : 2 кадра
    Идентификатор кодека : V_MPEG4/ISO/AVC
    Продолжительность : 1 ч. 57 м.
    Битрейт : 3999 Кбит/сек
    Ширина : 1280 пикселей
    Высота : 716 пикселей
    Соотношение сторон : 16: 9
    Режим частоты кадров : Постоянный
    Частота кадров : 23, 976 кадра/сек
    Цветовое пространство : YUV
    Субдискретизация насыщенности : 4: 2: 0
    Битовая глубина : 8 бит
    Тип развёртки : Прогрессивная
    Бит/(Пиксели*Кадры) : 0.182
    Размер потока : 3, 27 Гбайт (86%)
    Заголовок : To Kill a Priest/Убить священника (1988)
    Язык : English
    Default : Да
    Forced : Нет
    Основные цвета : BT.709
    Характеристики трансфера : BT.709
    Коэффициенты матрицы : BT.709
    colour_range : Limited
    Аудио #1
    Идентификатор : 2
    Формат : AC-3
    Формат/Информация : Audio Coding 3
    Расширение режима : CM (complete main)
    Параметр Endianness формата : Big
    Идентификатор кодека : A_AC3
    Продолжительность : 1 ч. 57 м.
    Вид битрейта : Постоянный
    Битрейт : 192 Кбит/сек
    Каналы : 2 канала
    Расположение каналов : Front: L R
    Частота : 48, 0 КГц
    Битовая глубина : 16 бит
    Метод сжатия : С потерями
    Размер потока : 161 Мбайт (4%)
    Заголовок : MVO (Russian) Первый канал
    Язык : Russian
    Default : Да
    Forced : Нет
    Аудио #2
    Идентификатор : 3
    Формат : AC-3
    Формат/Информация : Audio Coding 3
    Расширение режима : CM (complete main)
    Параметр Endianness формата : Big
    Идентификатор кодека : A_AC3
    Продолжительность : 1 ч. 57 м.
    Вид битрейта : Постоянный
    Битрейт : 192 Кбит/сек
    Каналы : 2 канала
    Расположение каналов : Front: L R
    Частота : 48, 0 КГц
    Битовая глубина : 16 бит
    Метод сжатия : С потерями
    Размер потока : 161 Мбайт (4%)
    Заголовок : DVO (Russian) НТВ+
    Язык : Russian
    Default : Нет
    Forced : Нет
    Аудио #3
    Идентификатор : 4
    Формат : AC-3
    Формат/Информация : Audio Coding 3
    Расширение режима : CM (complete main)
    Параметр Endianness формата : Big
    Идентификатор кодека : A_AC3
    Продолжительность : 1 ч. 57 м.
    Вид битрейта : Постоянный
    Битрейт : 192 Кбит/сек
    Каналы : 2 канала
    Расположение каналов : Front: L R
    Частота : 48, 0 КГц
    Битовая глубина : 16 бит
    Метод сжатия : С потерями
    Размер потока : 161 Мбайт (4%)
    Заголовок : Original (English)
    Язык : English
    Default : Нет
    Forced : Нет
    Текст
    Идентификатор : 5
    Формат : UTF-8
    Идентификатор кодека : S_TEXT/UTF8
    Идентификатор кодека/Информация : UTF-8 Plain Text
    Заголовок : Eng
    Язык : English
    Default : Нет
    Forced : Нет
    Меню
    00: 00: 00.000 : en: Chapter 1
    00: 10: 37.000 : en: Chapter 2
    00: 20: 17.000 : en: Chapter 3
    00: 30: 24.000 : en: Chapter 4
    00: 40: 46.000 : en: Chapter 5
    00: 51: 39.000 : en: Chapter 6
    01: 00: 29.000 : en: Chapter 7
    01: 10: 34.000 : en: Chapter 8
    01: 20: 19.000 : en: Chapter 9
    01: 30: 36.000 : en: Chapter 10
    01: 42: 31.000 : en: Chapter 11
    01: 50: 15.000 : en: Chapter 12

    Релиз подготовил: Dreven
    Залил: Soroka1989

    Онлайн видео Убить священника


    Размер скачиваемого торрента: 3.82 GB (4103600600 Bytes)

    Убить священника/To Kill a Priest (1988) WEB-DL 720p | P, P2
    загрузка...
    Рейтинг →
     (голосов: 1, оценка 3/5, голосовать можно 1 раз )

    Другие торренты по теме:

  • Убить священника / To Kill a Priest (1988) DVD9 скачать через торрент бесплатно
  • Убить священника / To Kill a Priest (1988) DVDRip от torrentfilm | P
  • Убить священника / To Kill a Priest (1988) WEB-DLRip от MegaPeer | P


    • Комментарии (0):

      Информация

      Информация

        Посетители, находящиеся в группе Гости, не могут оставлять комментарии в данной новости.

        ↓ Меню



        ↓ Опрос

        А Вы добавили сайт в закладки?
        Да
        Не


        Top 10 за месяц (Фильмы)