.
Авторизация | Регистрация
Хочешь лучшие торренты? Добавь свой email!
Добавить
» » Девушка джигит (1955) SATRip от New-Team скачать торрент бесплатно




    Девушка джигит (1955) SATRip от New-Team скачать торрент бесплатно

    Опубликовал: Админ | Дата: 24-06-2016, 14:31 | Просмотров: 137



    Снималось в: СССР
    Создали в: Алма-Атинская студия
    Категория жанра: комедия
    Создали в: 1955
    Время просмотра: 01: 31: 00
    Перевод текста: Не требуется
    Субтитры подготовлены: нет
    Оригинальная аудиодорожка: русский
    Главный режиссер: Павел Боголюбов

    Актеры

    Лидия Ашрапова, Кененбай Кожабеков, Мулюк Суртубаев, Варвара Сошальская, Анатолий Алексеев, Сабира Майканова, А. Мухамедьяров, Канабек Байсеитов, Игорь Боголюбов, Сайфулла Тельгараев, Константин Старостин, Бикен Римова, Амина Умурзакова, Д. Таялиева, Тамара Думная, Серке (Сералы) Кожамкулов...
    Полный список актёров
    Описание:
    Молодой колхозный коневод Айдар и старшая табунщица конезавода Галия давно любят друг друга. Случается так, что из-за недоразумения между молодыми людьми возникает размолвка. Это обстоятельство пытается использовать заведующий магазином Ангарбай, который не прочь стать женихом Галии.
    Айдар мечтает завести в своем колхозе племенных породистых лошадей. Но председатель колхоза, его отец, отказывается выделить средства. Стремясь убедить несговорчивого папашу в том, что колхозные лошади действительно плохи, Айдар решает на скачках уступить первенство Галие.
    Девушка, в свою очередь, придерживает коня, чтобы дать возможность отличиться возлюбленному и по старому обычаю получить от него в награду поцелуй. Но напрасны старания девушки. Айдар все же приходит последним. Поражение Айдара заставляет его отца раскошелиться на покупку племенных коней. Однако молодой коневод надолго теряет расположение любимой девушки.
    После ряда случайностей недоразумение между любимыми улаживается, фильм заканчивается веселым свадебным праздником.



    Источник: DVB
    Качество фильма видео: SATRip
    Тип видео видео: AVI
    Информация о видео: 688x512 (4: 3), 25 fps, XviD ~ 1512 kbps avg, 0.172 bit/pixel
    Информация о звуке: 48 kHz, Dolby Digital AC3 2.0, 192 kbps
    Раздача от:
    MediaInfo

    Общее
    Полное имя : Devushka-dzhigit.1955.SATRip_New-team_by_AVP_Studio.avi
    Формат : AVI
    Формат/Информация : Audio Video Interleave
    Размер файла : 1, 09 Гбайт
    Продолжительность : 1 ч. 31 м.
    Общий поток : 1714 Кбит/сек
    Программа кодирования : VirtualDubMod 1.5.10.3 | www.virtualdub-fr.org || (build 2550/release)
    Библиотека кодирования : VirtualDubMod build 2550/release
    Видео
    Идентификатор : 0
    Формат : MPEG-4 Visual
    Профиль формата : Advanced Simple@L5
    Параметр BVOP формата : 1
    Параметр QPel формата : Нет
    Параметр GMC формата : Без точки перехода
    Параметр матрицы формата : Выборочная
    Идентификатор кодека : XVID
    Идентификатор кодека/Подсказка : XviD
    Продолжительность : 1 ч. 31 м.
    Битрейт : 1512 Кбит/сек
    Ширина : 688 пикселей
    Высота : 512 пикселей
    Соотношение сторон : 4: 3
    Частота кадров : 25, 000 кадров/сек
    Цветовое пространство : YUV
    Субдискретизация насыщенности : 4: 2: 0
    Битовая глубина : 8 бит
    Тип развёртки : Прогрессивная
    Метод сжатия : С потерями
    Бит/(Пиксели*Кадры) : 0.172
    Размер потока : 984 Мбайт (88%)
    Библиотека кодирования : XviD 1.2.1 (UTC 2008-12-04)
    Аудио
    Идентификатор : 1
    Формат : AC-3
    Формат/Информация : Audio Coding 3
    Расширение режима : CM (complete main)
    Параметр Endianness формата : Big
    Идентификатор кодека : 2000
    Продолжительность : 1 ч. 31 м.
    Вид битрейта : Постоянный
    Битрейт : 192 Кбит/сек
    Каналы : 2 канала
    Расположение каналов : Front: L R
    Частота : 48, 0 КГц
    Частота кадров : 31, 250 кадров/сек (1536 spf)
    Метод сжатия : С потерями
    Размер потока : 125 Мбайт (11%)
    Выравнивание : Разделение по промежуткам
    Продолжительность промежутка : 40 мс. (1, 00 видеокадр)
    Время предзагрузки промежутка : 500 мс

    Скриншоты



    Залил: AVPStudio

    Онлайн видео Девушка джигит (1955) SATRip от New


    Размер скачиваемого торрента: 1.09 GB (1169799168 Bytes)

    Девушка джигит (1955) SATRip от New-Team
    загрузка...
    Рейтинг →
     (голосов: 1, оценка 4/5, голосовать можно 1 раз )

    Другие торренты по теме:

  • Девушка джигит (1955) SATRip-AVC от New-Team


    • Комментарии (0):

      Информация

      Информация

        Посетители, находящиеся в группе Гости, не могут оставлять комментарии в данной новости.

        ↓ Меню



        ↓ Опрос

        А Вы добавили сайт в закладки?
        Да
        Не


        Top 10 за месяц (Фильмы)