.
Авторизация | Регистрация
Хочешь лучшие торренты? Добавь свой email!
Добавить
» » Агент Коди Бэнкс 2: Пункт назначения – Лондон / Agent Cody Banks 2: Destination London (2004) BDRip-AVC | D, P, A скачать торрент бесплатно




    Агент Коди Бэнкс 2: Пункт назначения – Лондон / Agent Cody Banks 2: Destination London (2004) BDRip-AVC | D, P, A скачать торрент бесплатно

    Опубликовал: Админ | Дата: 24-06-2016, 05:00 | Просмотров: 56



    Создали в: США/Dylan Sellers Productions, Metro-Goldwyn-Mayer (MGM), Splendid Pictures
    Категория жанра: Приключения, Боевик, Комедия, Фантастика
    Главный режиссер: Кевин Аллен
    Актеры: Фрэнки Муниз, Энтони Андерсон, Ханна Спирритт, Синтия Стивенсон, Дэниэл Робак, Анна Чэнселлор, Кит Аллен, Джеймс Фолкнер, Дэвид Келли, Сантьяго Сегура

    Описание фильма

    Обычный сиэттловский тинейджер Коди Бэнкс, по совместительству младший секретный агент ЦРУ, снова должен спасать родину. На этот раз он отправляется в Лондон. По легенде он — студент, приехавший учиться по обмену.
    Однако его главная задача — найти украденное секретное устройство, позволяющее управлять сознанием других людей. Но в ходе операции Бэнкс понимает, что его операция — это прикрытие большой аферы, в которую замешано его начальство…

    Время просмотра: 01: 40: 03
    Качество фильма видео: BDRip-AVC
    Перевод текста: Дублированный, профессиональный многоголосый, авторский одноголосый
    Язык субтитров: Английский
    Вид субтитров: Вшитые отключаемые
    Информация о видео: AVC, 1024x432 (2.35: 1), 23.976 fps, 2 700 Kbps (0.255 bit/pixel)
    Информация о звуке #1: AC-3, 48.0 KHz, 6 ch, 448 Kbps, CBR (Russian) - дубляж
    Информация о звуке #2: AC-3, 48.0 KHz, 6 ch, 448 Kbps, CBR (Russian) - многоголосый
    Информация о звуке #3: AC-3, 48.0 KHz, 6 ch, 448 Kbps, CBR (Russian) - авторский Е.Рудой
    Информация о звуке #4: AC-3, 48.0 KHz, 6 ch, 448 Kbps, CBR (English) - оригинал
    Mediainfo:

    x264 info: frame I: 1693 Avg QP: 16.84 size: 80297 PSNR Mean Y: 46.28 U: 50.33 V: 50.73 Avg: 47.28 Global: 46.86
    x264 info: frame P: 33263 Avg QP: 19.83 size: 26321 PSNR Mean Y: 44.16 U: 49.29 V: 49.82 Avg: 45.30 Global: 44.67
    x264 info: frame B: 108971 Avg QP: 21.78 size: 9294 PSNR Mean Y: 43.19 U: 48.84 V: 49.42 Avg: 44.40 Global: 43.70
    ***
    Формат : Matroska
    Версия формата : Version 2
    Размер файла : 3, 14 Гбайт
    Продолжительность : 1 ч. 40 м.
    Общий поток : 4492 Кбит/сек
    Дата кодирования : UTC 2016-06-23 16: 57: 10
    Программа кодирования : mkvmerge v5.3.0 (;I could have danced;) built on Feb 9 2012 10: 38: 07
    Библиотека кодирования : libebml v1.2.3 + libmatroska v1.3.0
    Attachment : Yes
    Видео
    Идентификатор : 1
    Формат : AVC
    Формат/Информация : Advanced Video Codec
    Профиль формата : High@L4.1
    Параметр CABAC формата : Да
    Параметр ReFrames формата : 12 кадров
    Идентификатор кодека : V_MPEG4/ISO/AVC
    Продолжительность : 1 ч. 40 м.
    Битрейт : 2700 Кбит/сек
    Ширина : 1024 пикселя
    Высота : 432 пикселя
    Соотношение сторон : 2, 40: 1
    Режим частоты кадров : Постоянный
    Частота кадров : 23, 976 кадра/сек
    Цветовое пространство : YUV
    Субдискретизация насыщенности : 4: 2: 0
    Битовая глубина : 8 бит
    Тип развёртки : Прогрессивная
    Бит/(Пиксели*Кадры) : 0.255
    Размер потока : 1, 82 Гбайт (58%)
    Библиотека кодирования : x264 core 146 r2538 121396c
    Настройки программы : cabac=1/ref=12/deblock=1: -3: -3/analyse=0x3: 0x133/me=umh/subme=11/psy=1/psy_rd=1.00: 0.10/mixed_ref=1/me_range=32/chroma_me=1/trellis=2/8x8dct=1/cqm=0/deadzone=21, 11/fast_pskip=0/chroma_qp_offset=-3/threads=12/lookahead_threads=2/sliced_threads=0/nr=0/decimate=0/interlaced=0/bluray_compat=0/constrained_intra=0/bframes=9/b_pyramid=2/b_adapt=2/b_bias=0/direct=3/weightb=1/open_gop=0/weightp=2/keyint=240/keyint_min=23/scenecut=40/intra_refresh=0/rc_lookahead=40/rc=2pass/mbtree=0/bitrate=2700/ratetol=1.0/qcomp=0.60/qpmin=0/qpmax=69/qpstep=4/cplxblur=20.0/qblur=0.5/vbv_maxrate=50000/vbv_bufsize=62500/nal_hrd=none/filler=0/ip_ratio=1.40/pb_ratio=1.30/aq=1: 0.70
    Язык : English
    Default : Да
    Forced : Нет
    Аудио #1
    Идентификатор : 2
    Формат : AC-3
    Формат/Информация : Audio Coding 3
    Расширение режима : CM (complete main)
    Параметр Endianness формата : Big
    Идентификатор кодека : A_AC3
    Продолжительность : 1 ч. 40 м.
    Вид битрейта : Постоянный
    Битрейт : 448 Кбит/сек
    Каналы : 6 каналов
    Расположение каналов : Front: L C R, Side: L R, LFE
    Частота : 48, 0 КГц
    Битовая глубина : 16 бит
    Метод сжатия : С потерями
    Задержка видео : 1 с. 0 мс.
    Размер потока : 321 Мбайт (10%)
    Заголовок : Dub Невафильм
    Язык : Russian
    Default : Нет
    Forced : Нет
    Аудио #2
    Идентификатор : 3
    Формат : AC-3
    Формат/Информация : Audio Coding 3
    Расширение режима : CM (complete main)
    Параметр Endianness формата : Big
    Идентификатор кодека : A_AC3
    Продолжительность : 1 ч. 40 м.
    Вид битрейта : Постоянный
    Битрейт : 448 Кбит/сек
    Каналы : 6 каналов
    Расположение каналов : Front: L C R, Side: L R, LFE
    Частота : 48, 0 КГц
    Битовая глубина : 16 бит
    Метод сжатия : С потерями
    Задержка видео : 1 с. 0 мс.
    Размер потока : 321 Мбайт (10%)
    Заголовок : MVO
    Язык : Russian
    Default : Нет
    Forced : Нет
    Аудио #3
    Идентификатор : 4
    Формат : AC-3
    Формат/Информация : Audio Coding 3
    Расширение режима : CM (complete main)
    Параметр Endianness формата : Big
    Идентификатор кодека : A_AC3
    Продолжительность : 1 ч. 40 м.
    Вид битрейта : Постоянный
    Битрейт : 448 Кбит/сек
    Каналы : 6 каналов
    Расположение каналов : Front: L C R, Side: L R, LFE
    Частота : 48, 0 КГц
    Битовая глубина : 16 бит
    Метод сжатия : С потерями
    Задержка видео : 1 с. 0 мс.
    Размер потока : 321 Мбайт (10%)
    Заголовок : AVO Рудой Евгений
    Язык : Russian
    Default : Нет
    Forced : Нет
    Аудио #4
    Идентификатор : 5
    Формат : AC-3
    Формат/Информация : Audio Coding 3
    Расширение режима : CM (complete main)
    Параметр Endianness формата : Big
    Идентификатор кодека : A_AC3
    Продолжительность : 1 ч. 40 м.
    Вид битрейта : Постоянный
    Битрейт : 448 Кбит/сек
    Каналы : 6 каналов
    Расположение каналов : Front: L C R, Side: L R, LFE
    Частота : 48, 0 КГц
    Битовая глубина : 16 бит
    Метод сжатия : С потерями
    Задержка видео : 1 с. 0 мс.
    Размер потока : 321 Мбайт (10%)
    Язык : English
    Default : Нет
    Forced : Нет
    Текст
    Идентификатор : 6
    Формат : UTF-8
    Идентификатор кодека : S_TEXT/UTF8
    Идентификатор кодека/Информация : UTF-8 Plain Text
    Язык : English
    Default : Нет
    Forced : Нет

    Скриншоты:


    Онлайн видео Агент Коди Бэнкс 2: Пункт назначения – Лондон


    Размер скачиваемого торрента: 3.14 GB (3371266916 Bytes)

    Агент Коди Бэнкс 2: Пункт назначения – Лондон/Agent Cody Banks 2: Destination London (2004) BDRip-AVC | D, P, A
    загрузка...
    Рейтинг →
     (голосов: 1, оценка 4/5, голосовать можно 1 раз )

    Другие торренты по теме:

  • Агент Коди Бэнкс / Agent Cody Banks (2003) DVDRip-AVC от Youtracker | D
  • Агент Коди Бэнкс / Agent Cody Banks (2003) BDRip 720p от ivandubskoj | D, P, P2
  • Агент Коди Бэнкс / Agent Cody Banks (2003) BDRip 1080p | D, P, P2
  • Агент Коди Бэнкс 2: Пункт назначения - Лондон / Agent Cody Banks 2: Destination London (2004) BDRip 720p от ivandubskoj | D, P, A


    • Комментарии (0):

      Информация

      Информация

        Посетители, находящиеся в группе Гости, не могут оставлять комментарии в данной новости.

        ↓ Меню



        ↓ Опрос

        А Вы добавили сайт в закладки?
        Да
        Не


        Top 10 за месяц (Фильмы)