.
Авторизация | Регистрация
Хочешь лучшие торренты? Добавь свой email!
Добавить
» » Игби идет ко дну / Igby Goes Down (2002) HDTVRip | Р2, L2 скачать торрент бесплатно




    Игби идет ко дну / Igby Goes Down (2002) HDTVRip | Р2, L2 скачать торрент бесплатно

    Опубликовал: Админ | Дата: 24-06-2016, 05:00 | Просмотров: 46



    Игби идет ко дну / Igby Goes Down
    Снималось в: США
    Создали в: Atlantic Streamline, Crossroads Films, Helkon Media AG, United Artists
    Создали в: 2002
    Категория жанра: драма, мелодрама, комедия
    Время просмотра: 01: 33: 52
    Главный режиссер: Бёрр Стирс
    Автор сценария: Бёрр Стирс

    Актеры
    Киран Калкин, Клэр Дэйнс, Джефф Голдблюм, Джаред Харрис, Аманда Пит, Райан Филипп, Билл Пуллман, Сьюзен Сарандон, Рори Калкин
    Описание: Молодого парня достала его веселая семейка: жестокая мать, высокомерный брат и отец-шизик. Своими вечными переездами они не дают ему прижиться ни в одной школе, пока наконец не прибывают в Нью-Йорк, где парнишка знакомится с такой же замученной жизнью девчонкой, в которую в скором времени влюбляется. Как тут всему не перевернуться с ног на голову..?

    Перевод текста: Профессиональный (двухголосый, закадровый) | НТВ++ Любительский (двухголосый)
    Субтитры: отдельными файлами(русские, английские)
    Качество фильма: HDTVRip
    Тип видео: АVI
    Информация о видео кодек: XviD
    Информация о звуке кодек: АС3
    Информация о видео: 688x384 (16: 9), 25.000 fps, XviD build 73 ~2 078 kbps avg, 0.315 bit/pixel
    Информация о звуке №1: 48 kHz, AC3 Dolby Digital, 2/0 (L, R) ch, ~192.00 kbps | DVO/ НТВ+
    Информация о звуке №2: 48 kHz, AC3 Dolby Digital, 3/2 (L, C, R, l, r) + LFE ch, ~384 kbps | DVO
    Информация о звуке №3: 48 kHz, AC3 Dolby Digital, 3/2 (L, C, R, l, r) + LFE ch, ~448 kbps | ENG
    Тип видео субтитров: *SRT
    Бюджет: $9 000 000
    Дата премьеры (мир): 23 мая 2002
    Media Info
    General
    Полное имя : Igby.idet.vniz.2002.HDTVRip.avi
    Формат : AVI
    Формат/Информация : Audio Video Interleave
    Профиль формата : OpenDML
    Размер файла : 2, 05 Гбайт
    Продолжительность : 1 ч. 33 м.
    Общий поток : 3128 Кбит/сек
    Программа кодирования : VirtualDubModRus 1.5.10.2 (build 2542/release)
    Библиотека кодирования : VirtualDubMod build 2542/release
    Видео
    Идентификатор : 0
    Формат : MPEG-4 Visual
    Профиль формата : Advanced Simple@L5
    Параметр BVOP формата : 1
    Параметр QPel формата : Нет
    Параметр GMC формата : Без точки перехода
    Параметр матрицы формата : Выборочная
    Идентификатор кодека : XVID
    Идентификатор кодека/Подсказка : XviD
    Продолжительность : 1 ч. 33 м.
    Битрейт : 2078 Кбит/сек
    Ширина : 688 пикселей
    Высота : 384 пикселя
    Соотношение сторон : 16: 9
    Частота кадров : 25, 000 кадров/сек
    Цветовое пространство : YUV
    Субдискретизация насыщенности : 4: 2: 0
    Битовая глубина : 8 бит
    Тип развёртки : Прогрессивная
    Метод сжатия : С потерями
    Бит/(Пиксели*Кадры) : 0.315
    Размер потока : 1, 36 Гбайт (66%)
    Библиотека кодирования : XviD 73
    Аудио #1
    Идентификатор : 1
    Формат : AC-3
    Формат/Информация : Audio Coding 3
    Расширение режима : CM (complete main)
    Параметр Endianness формата : Big
    Идентификатор кодека : 2000
    Продолжительность : 1 ч. 33 м.
    Вид битрейта : Постоянный
    Битрейт : 192 Кбит/сек
    Каналы : 2 канала
    Расположение каналов : Front: L R
    Частота : 48, 0 КГц
    Битовая глубина : 16 бит
    Метод сжатия : С потерями
    Размер потока : 129 Мбайт (6%)
    Выравнивание : Разделение по промежуткам
    Продолжительность промежутка : 40 мс. (1, 00 видеокадр)
    Время предзагрузки промежутка : 500 мс.
    Аудио #2
    Идентификатор : 2
    Формат : AC-3
    Формат/Информация : Audio Coding 3
    Расширение режима : CM (complete main)
    Параметр Endianness формата : Big
    Идентификатор кодека : 2000
    Продолжительность : 1 ч. 33 м.
    Вид битрейта : Постоянный
    Битрейт : 384 Кбит/сек
    Каналы : 6 каналов
    Расположение каналов : Front: L C R, Side: L R, LFE
    Частота : 48, 0 КГц
    Битовая глубина : 16 бит
    Метод сжатия : С потерями
    Размер потока : 258 Мбайт (12%)
    Выравнивание : Разделение по промежуткам
    Продолжительность промежутка : 40 мс. (1, 00 видеокадр)
    Время предзагрузки промежутка : 500 мс.
    Аудио #3
    Идентификатор : 3
    Формат : AC-3
    Формат/Информация : Audio Coding 3
    Расширение режима : CM (complete main)
    Параметр Endianness формата : Big
    Идентификатор кодека : 2000
    Продолжительность : 1 ч. 33 м.
    Вид битрейта : Постоянный
    Битрейт : 448 Кбит/сек
    Каналы : 6 каналов
    Расположение каналов : Front: L C R, Side: L R, LFE
    Частота : 48, 0 КГц
    Битовая глубина : 16 бит
    Метод сжатия : С потерями
    Размер потока : 301 Мбайт (14%)
    Выравнивание : Разделение по промежуткам
    Продолжительность промежутка : 40 мс. (1, 00 видеокадр)
    Время предзагрузки промежутка : 500 мс.

    Скриншоты

    Залил: Zha-4k-e

    Онлайн видео Игби идет ко дну


    Размер скачиваемого торрента: 2.05 GB (2202137979 Bytes)

    Игби идет ко дну/Igby Goes Down (2002) HDTVRip | Р2, L2
    загрузка...
    Рейтинг →
     (голосов: 1, оценка 3/5, голосовать можно 1 раз )

    Другие торренты по теме:

  • Игби идет ко дну / Igby Goes Down (2002) DVDRip


    • Комментарии (0):

      Информация

      Информация

        Посетители, находящиеся в группе Гости, не могут оставлять комментарии в данной новости.

        ↓ Меню



        ↓ Опрос

        А Вы добавили сайт в закладки?
        Да
        Не


        Top 10 за месяц (Фильмы)