.
Авторизация | Регистрация
Хочешь лучшие торренты? Добавь свой email!
Добавить
» » Экстремалы / Extreme Ops (2002) DVDRip-AVC от NNMClub | D, P скачать торрент бесплатно




    Экстремалы / Extreme Ops (2002) DVDRip-AVC от NNMClub | D, P скачать торрент бесплатно

    Опубликовал: Админ | Дата: 24-06-2016, 05:00 | Просмотров: 58



    Создали в: Великобритания, Германия, Люксембург
    Категория жанра: Приключения, Боевик
    Главный режиссер: Кристиан Дюгей
    Актеры: Девон Сава, Руфус Сьюэлл, Бриджитт Уилсон-Сампрас, Хейно Ферч

    Описание фильма

    Лишь горстка людей в мире способна на сноубордах уйти от сорвавшейся лавины и заснять все это для дорогостоящей рекламы. Съемочная группа набирается из отчаянных профи своего дела и отправляется высоко в Альпы, чтобы снять этот рискованный трюк. Но они оказались не одни на этих заснеженных вершинах – в объектив кинокамеры попадает международный преступник. Теперь, съемки – это самое легкое из того, что предстоит любителям экстремального спорта. Их всего шестеро, а единственное их оружие – это скорость...
    Время просмотра: 01: 28: 57
    Качество фильма видео: DVDRip-AVC
    Перевод текста: Дублированный, профессиональный многоголосый
    Субтитры: Русские (отключаемые)
    Информация о видео: AVC, 720x304 (2.35: 1), 25 fps, 2 729 Kbps (0.499 bit/pixel)
    Информация о звуке #1: AC-3, 48.0 KHz, 6 ch, 384 Kbps (Russian) - дубляж
    Информация о звуке #2: AAC LC, 48.0 KHz, 6 ch, 201 kbps (Russian) - многоголосый
    Информация о звуке #3: AC-3, 48.0 KHz, 6 ch, 384 Kbps (English) - оригинал
    avdump
    Duration: 01: 29: 16 (5356.44)
    Track #1: video
    lang: und (1)
    codc: V_MPEG4/ISO/AVC - H264/AVC (22)
    reso: 720x304 (720x304) - Unknown (aka not common)
    fram: 25 fps
    rate: 2728 kbps (2728.06)
    dura: 01: 29: 16 (5356.4)
    size: 1.70 GB (1826573152)
    Track #2: audio (????????????)
    lang: rus - Russian (15)
    codc: A_AC3 - AC3 (2)
    chan: 6 - 5.1 Surround
    samp: 48000 Hz
    rate: 384 kbps (384.05)
    dura: 01: 29: 16 (5356.16)
    size: 245.22 MB (257128024)
    Track #3: audio (????????????????????????)
    lang: rus - Russian (15)
    codc: A_AAC - AAC (9)
    chan: 6 - 5.1 Surround
    samp: 48000 Hz
    rate: 201 kbps (201.39)
    dura: 01: 29: 16 (5356.22)
    size: 128.59 MB (134837044)
    Track #4: audio (????????????????)
    lang: Unknown (1)
    codc: A_AC3 - AC3 (2)
    chan: 6 - 5.1 Surround
    samp: 48000 Hz
    rate: 384 kbps (384.05)
    dura: 01: 29: 16 (5356.16)
    size: 245.22 MB (257128026)
    Track #5: subtitles
    lang: rus - Russian (15)
    type: S_TEXT/UTF8 - SRT (3)
    size: 47.08 KB (48205)
    Sizes: (check sanity)
    disk: 2.31 GB (2477637051)
    atts: 338.38 KB (346498)
    trac: 2.31 GB (2475714451) based on track size
    bitr: 2.31 GB (2475693609) based on bitrate
    tdif: 1.50 MB (1576102) 0.06%
    bdif: 1.52 MB (1596943) 0.06%
    Mediainfo:

    Формат : Matroska
    Версия формата : Version 2
    Размер файла : 2, 31 Гбайт
    Продолжительность : 1 ч. 29 м.
    Общий поток : 3700 Кбит/сек
    Название фильма : Extreme Ops
    Дата кодирования : UTC 2016-06-18 10: 40: 19
    Программа кодирования : mkvmerge v5.3.0 (;I could have danced;) built on Feb 9 2012 10: 38: 07
    Библиотека кодирования : libebml v1.2.3 + libmatroska v1.3.0
    Attachment : Yes
    Видео
    Идентификатор : 1
    Формат : AVC
    Формат/Информация : Advanced Video Codec
    Профиль формата : High@L4.1
    Параметр CABAC формата : Да
    Параметр ReFrames формата : 11 кадров
    Идентификатор кодека : V_MPEG4/ISO/AVC
    Продолжительность : 1 ч. 29 м.
    Номинальный битрейт : 2729 Кбит/сек
    Ширина : 720 пикселей
    Высота : 304 пикселя
    Соотношение сторон : 2, 35: 1
    Режим частоты кадров : Постоянный
    Частота кадров : 25, 000 кадров/сек
    Цветовое пространство : YUV
    Субдискретизация насыщенности : 4: 2: 0
    Битовая глубина : 8 бит
    Тип развёртки : Прогрессивная
    Бит/(Пиксели*Кадры) : 0.499
    Библиотека кодирования : x264 core 146 r2538 121396c
    Настройки программы : cabac=1/ref=11/deblock=1: -2: -2/analyse=0x3: 0x133/me=umh/subme=11/psy=1/psy_rd=1.00: 0.10/mixed_ref=1/me_range=32/chroma_me=1/trellis=2/8x8dct=1/cqm=0/deadzone=21, 11/fast_pskip=0/chroma_qp_offset=-3/threads=12/lookahead_threads=2/sliced_threads=0/nr=0/decimate=0/interlaced=0/bluray_compat=0/constrained_intra=0/bframes=9/b_pyramid=2/b_adapt=2/b_bias=0/direct=3/weightb=1/open_gop=0/weightp=2/keyint=240/keyint_min=23/scenecut=40/intra_refresh=0/rc_lookahead=40/rc=2pass/mbtree=0/bitrate=2729/ratetol=1.0/qcomp=0.60/qpmin=0/qpmax=69/qpstep=4/cplxblur=20.0/qblur=0.5/vbv_maxrate=50000/vbv_bufsize=62500/nal_hrd=none/filler=0/ip_ratio=1.40/pb_ratio=1.30/aq=2: 0.80
    Default : Да
    Forced : Нет
    Аудио #1
    Идентификатор : 2
    Формат : AC-3
    Формат/Информация : Audio Coding 3
    Расширение режима : CM (complete main)
    Параметр Endianness формата : Big
    Идентификатор кодека : A_AC3
    Продолжительность : 1 ч. 29 м.
    Вид битрейта : Постоянный
    Битрейт : 384 Кбит/сек
    Каналы : 6 каналов
    Расположение каналов : Front: L C R, Side: L R, LFE
    Частота : 48, 0 КГц
    Битовая глубина : 16 бит
    Метод сжатия : С потерями
    Размер потока : 245 Мбайт (10%)
    Заголовок : Дубляж
    Язык : Russian
    Default : Да
    Forced : Нет
    Аудио #2
    Идентификатор : 3
    Формат : AAC
    Формат/Информация : Advanced Audio Codec
    Профиль формата : LC
    Идентификатор кодека : A_AAC
    Продолжительность : 1 ч. 29 м.
    Каналы : 6 каналов
    Расположение каналов : Front: L C R, Side: L R, LFE
    Частота : 48, 0 КГц
    Метод сжатия : С потерями
    Заголовок : Многоголосый
    Язык : Russian
    Default : Нет
    Forced : Нет
    Аудио #3
    Идентификатор : 4
    Формат : AC-3
    Формат/Информация : Audio Coding 3
    Расширение режима : CM (complete main)
    Параметр Endianness формата : Big
    Идентификатор кодека : A_AC3
    Продолжительность : 1 ч. 29 м.
    Вид битрейта : Постоянный
    Битрейт : 384 Кбит/сек
    Каналы : 6 каналов
    Расположение каналов : Front: L C R, Side: L R, LFE
    Частота : 48, 0 КГц
    Битовая глубина : 16 бит
    Метод сжатия : С потерями
    Размер потока : 245 Мбайт (10%)
    Заголовок : Оригинал
    Язык : English
    Default : Нет
    Forced : Нет
    Текст
    Идентификатор : 5
    Формат : UTF-8
    Идентификатор кодека : S_TEXT/UTF8
    Идентификатор кодека/Информация : UTF-8 Plain Text
    Язык : Russian
    Default : Да
    Forced : Нет
    Меню
    00: 00: 00.000 : : Chapter 01
    00: 05: 17.720 : : Chapter 02
    00: 08: 56.120 : : Chapter 03
    00: 13: 25.480 : : Chapter 04
    00: 15: 55.760 : : Chapter 05
    00: 19: 29.480 : : Chapter 06
    00: 24: 57.080 : : Chapter 07
    00: 28: 18.320 : : Chapter 08
    00: 31: 13.560 : : Chapter 09
    00: 37: 37.320 : : Chapter 10
    00: 41: 10.000 : : Chapter 11
    00: 44: 20.840 : : Chapter 12
    00: 47: 47.280 : : Chapter 13
    00: 50: 53.960 : : Chapter 14
    00: 53: 19.040 : : Chapter 15
    00: 55: 54.520 : : Chapter 16
    01: 00: 03.080 : : Chapter 17
    01: 03: 33.160 : : Chapter 18
    01: 06: 14.360 : : Chapter 19
    01: 09: 17.400 : : Chapter 20
    01: 13: 01.520 : : Chapter 21
    01: 16: 17.560 : : Chapter 22
    01: 19: 59.600 : : Chapter 23
    01: 24: 59.640 : : Chapter 24

    Скриншоты:


    Онлайн видео Экстремалы


    Размер скачиваемого торрента: 2.31 GB (2477637051 Bytes)

    Экстремалы/Extreme Ops (2002) DVDRip-AVC от NNMClub | D, P
    загрузка...
    Рейтинг →
     (голосов: 1, оценка 4/5, голосовать можно 1 раз )

    Другие торренты по теме:

  • Экстремалы / Extreme Ops (2002) DVD5 | D
  • Дальнобойщики - экстремалы / Truckers of the Extreme (1996) SATRip


    • Комментарии (0):

      Информация

      Информация

        Посетители, находящиеся в группе Гости, не могут оставлять комментарии в данной новости.

        ↓ Меню



        ↓ Опрос

        А Вы добавили сайт в закладки?
        Да
        Не


        Top 10 за месяц (Фильмы)