.
Авторизация | Регистрация
Хочешь лучшие торренты? Добавь свой email!
Добавить
» » Экзорцизм: пещера шамана / Toema: munyeokul (2015) WEB-DLRip | L2 скачать торрент бесплатно




    Экзорцизм: пещера шамана / Toema: munyeokul (2015) WEB-DLRip | L2 скачать торрент бесплатно

    Опубликовал: Админ | Дата: 24-06-2016, 05:00 | Просмотров: 50



    Экзорцизм: пещера шамана / The Chosen: Forbidden Cave / Toema: munyeokul
    Снималось в: Южная Корея
    Создали в: 2015
    Категория жанра: ужасы, триллер
    Время просмотра: 01: 45: 48
    Главный режиссер: Ким Хви

    Актеры
    Ким Сон-гюн, Ю Сон, Чхон Хо-джин, Чха Э-рён, Ким Хэ-сон, Ли Гю-джон
    Описание: Гым-джу замечает, что последнее время с ней творится что-то странное и необъяснимое. Она обращается за помощью к Джин-мёну, психологу и экзорцисту. Мужчина и его помощник Джи-гван вводят пациентку в транс и выясняют, что в теле Гым-джу обитает что-то ещё...

    Перевод текста: Любительский (двухголосый, закадровый) | den904 DeadSno
    Субтитры: нет
    Качество фильма: WEB-DLRip
    Тип видео: АVI
    Информация о видео кодек: XviD
    Информация о звуке кодек: АС3
    Информация о видео: 720x320 (2.25: 1), 24.000 fps, XviD ~1 728 kbps avg, 0.312 bit/pixel
    Информация о звуке: 48.0 kHz, AC3 Dolby Digital, 2/0 (L, R) ch, ~192 kbps
    Дата премьеры (мир): 24 июля 2015

    Media Info
    General
    Полное имя : Экзорцизм пещера шамана (ужасы, триллер, драма 2015г).avi
    Формат : AVI
    Формат/Информация : Audio Video Interleave
    Размер файла : 1, 42 Гбайт
    Продолжительность : 1 ч. 45 м.
    Общий поток : 1925 Кбит/сек
    Программа кодирования : VirtualDubModRus 1.5.10.2 (build 2542/release)
    Библиотека кодирования : VirtualDubMod build 2542/release
    Видео
    Идентификатор : 0
    Формат : MPEG-4 Visual
    Профиль формата : Advanced Simple@L5
    Параметр BVOP формата : 1
    Параметр QPel формата : Нет
    Параметр GMC формата : Без точки перехода
    Параметр матрицы формата : Выборочная
    Идентификатор кодека : XVID
    Идентификатор кодека/Подсказка : XviD
    Продолжительность : 1 ч. 45 м.
    Битрейт : 1728 Кбит/сек
    Ширина : 720 пикселей
    Высота : 320 пикселей
    Соотношение сторон : 2, 25: 1
    Частота кадров : 24, 000 кадра/сек
    Цветовое пространство : YUV
    Субдискретизация насыщенности : 4: 2: 0
    Битовая глубина : 8 бит
    Тип развёртки : Прогрессивная
    Метод сжатия : С потерями
    Бит/(Пиксели*Кадры) : 0.312
    Размер потока : 1, 28 Гбайт (90%)
    Библиотека кодирования : XviD 64
    Аудио
    Идентификатор : 1
    Формат : AC-3
    Формат/Информация : Audio Coding 3
    Расширение режима : CM (complete main)
    Параметр Endianness формата : Big
    Идентификатор кодека : 2000
    Продолжительность : 1 ч. 45 м.
    Вид битрейта : Постоянный
    Битрейт : 192 Кбит/сек
    Каналы : 2 канала
    Расположение каналов : Front: L R
    Частота : 48, 0 КГц
    Частота кадров : 31, 250 кадров/сек (1536 spf)
    Битовая глубина : 16 бит
    Метод сжатия : С потерями
    Размер потока : 145 Мбайт (10%)
    Выравнивание : Соединение по промежуткам
    Продолжительность промежутка : 160 мс. (3, 84 видеокадра)
    Время предзагрузки промежутка : 640 мс.

    Скриншоты

    Залил: Zha-4k-e

    Онлайн видео Экзорцизм: пещера шамана


    Размер скачиваемого торрента: 1.42 GB (1528059904 Bytes)

    Экзорцизм: пещера шамана/Toema: munyeokul (2015) WEB-DLRip | L2
    загрузка...
    Рейтинг →
     (голосов: 1, оценка 3/5, голосовать можно 1 раз )

    Другие торренты по теме:

  • Экзорцизм: пещера шамана / Toema: munyeokul (2015) WEB-DL 720p | L2


    • Комментарии (0):

      Информация

      Информация

        Посетители, находящиеся в группе Гости, не могут оставлять комментарии в данной новости.

        ↓ Меню



        ↓ Опрос

        А Вы добавили сайт в закладки?
        Да
        Не


        Top 10 за месяц (Фильмы)