.
Авторизация | Регистрация
Хочешь лучшие торренты? Добавь свой email!
Добавить
» » В былые времена / Back in the Day (2016) WEB-DLRip-AVC | L скачать торрент бесплатно




    В былые времена / Back in the Day (2016) WEB-DLRip-AVC | L скачать торрент бесплатно

    Опубликовал: Админ | Дата: 22-06-2016, 05:00 | Просмотров: 48



    Детально о кино
    Русское название: В былые времена
    Русское название в мировом прокате: Back in the Day
    Создали в: 2016
    Снималось в: США
    Категория жанра: драма, спорт
    Перевод текста: Любительский (многоголосый) Paradox Omskbird records
    Время просмотра: 02: 01: 13
    Главный режиссер: Пол Боргезе

    Актеры
    Алек Болдуин(Gino Fratelli) , Майкл Мэдсен(Enzo) , Шэннен Доэрти(Maria) , Аннабелла Шиорра(Mary) , Дэнни Гловер(Eddie laquo;Rocksraquo; Travor) , Уильям ДеМео(Anthony) , Лилло Бранкато(Nicky) , Майк Тайсон(Mike) , Джозеф Д’Онофрио(Matty) , Пол Боргезе(Sal Sapienza) , Луис Ломбарди(Jerry Velvontie) , Марго Казарян(Spectator)


    Описание фильма

    Детство и юность профессионального боксера Энтони Родригеса не были безоблачными. Вспоминая прежние деньки, он мысленно возвращается на бруклинскую улицу Бенсонхерст конца 80-х. Здесь было полно хулиганов, сомнительных заведений, часто слышались выстрелы. Наполовину итальянец, наполовину пуэрториканец, он вырос в жестоком мире насилия и расизма, терпел оскорбления, испытывал нужду. Безработному отцу-алкоголику было наплевать на сына, а заботливая и трудолюбивая мать умерла довольно рано. Не смотря на горечь утраты, Энтони изо всех сил пытался придерживаться моральных устоев, которые она ему привила, и всегда сохранять чувство собственного достоинства. На него обратил внимание босс местной мафии Энцо Девино, он взял парня под свое крыло, когда тот решил заниматься боксом. Энтони стал превращаться в сильного бойца, но здесь бокс был серьезным бизнесом, а Родригес мечтал о спортивной карьере. Для подростка из неблагополучного района добиться успеха в профессиональном боксе – цель почти недостижимая. И все же Энтони многое удалось. Вот только какой ценой?
    Рейтинг:

    Качество фильма: WEB-DLRip-AVC
    Тип видео: MKV
    Информация о видео: AVC, 1024x428 (2.40: 1), 1534 kbps, 23, 976 fps, 0, 146 bpp
    Информация о звуке №1: русский/AC3/2.0/48 kHz/192 kbps/16 bit
    Семпл

    Релиз подготовил: White Smoke Релиз без рекламы.

    ОтчетМедиаИнфо

    General
    Unique ID : 234450879071547287352857094706525847809 (0xB06198CB1B9E4D2CBE2BCF1C0B374101)
    Название : C: Back.in.the.Day.2016.WEB-DLRip-AVC.by.White Smoke.R.G.Resident.mkv
    Формат : Matroska
    Формат version : Version 4/Version 2
    Размер файла : 1.46 GiB
    Длительность : 2h 1mn
    Общий Битрейт : 1 727 Kbps
    Encoded date : UTC 2016-06-21 16: 23: 49
    Создано приложением : mkvmerge v6.8.0 (;Theme for Great Cities;) 64bit built on Mar 2 2014 21: 34: 26
    Writing library : libebml v1.3.0 + libmatroska v1.4.1
    Video
    ID : 1
    Формат : AVC
    Формат/Info : Advanced Video Кодек
    Формат profile : High@L4.1
    Формат настройки, CABAC : Yes
    Формат настройки, ReFrames : 12 frames
    Кодек ID : V_MPEG4/ISO/AVC
    Длительность : 2h 1mn
    Битрейт : 1 534 Kbps
    Width : 1 024 пикселей
    Высота : 428 пикселей
    Соотношение кадра : 2.40: 1
    Частота кадров : 23.976 fps
    Цветопередача : YUV
    Chroma subsampling : 4: 2: 0
    Разрядность : 8 bits
    Тип сканирования : Progressive
    Bits/(Pixel*Frame) : 0.146
    Размер потока : 1.27 GiB (87%)
    Writing library : x264 core 148 r2638 7599210
    Encoding настройки : cabac=1/ref=12/deblock=1: -3: -3/analyse=0x3: 0x113/me=umh/subme=9/psy=1/psy_rd=1.00: 0.00/mixed_ref=1/me_range=32/chroma_me=1/trellis=2/8x8dct=1/cqm=0/deadzone=21, 11/fast_pskip=1/chroma_qp_offset=-2/threads=6/lookahead_threads=1/sliced_threads=0/nr=0/decimate=0/interlaced=0/bluray_compat=0/constrained_intra=0/bframes=12/b_pyramid=2/b_adapt=2/b_bias=10/direct=1/weightb=0/open_gop=0/weightp=2/keyint=230/keyint_min=23/scenecut=40/intra_refresh=0/rc_lookahead=40/rc=2pass/mbtree=1/bitrate=1534/ratetol=1.0/qcomp=0.85/qpmin=0/qpmax=69/qpstep=4/cplxblur=20.0/qblur=0.5/ip_ratio=1.40/aq=1: 1.00
    Язык : English
    Default : Yes
    Forced : No
    Audio
    ID : 2
    Формат : AC-3
    Формат/Info : Audio Coding 3
    Расширение режима : CM (complete main)
    Кодек ID : A_AC3
    Длительность : 2h 1mn
    Битрейт mode : Constant
    Битрейт : 192 Kbps
    Channel(s) : 2 канала
    Channel positions : Front: L R
    Частота : 48.0 KHz
    Разрядность : 16 bits
    Режим сжатия : Lossy
    Размер потока : 166 MiB (11%)
    Язык : Russian
    Default : Yes
    Forced : No

    Скриншоты

    Залил: R.G. Resident

    Онлайн видео В былые времена


    Размер скачиваемого торрента: 1.46 GB (1570028821 Bytes)

    В былые времена/Back in the Day (2016) WEB-DLRip-AVC | L
    загрузка...
    Рейтинг →
     (голосов: 1, оценка 3/5, голосовать можно 1 раз )

    Другие торренты по теме:

  • В былые времена / Back in the Day (2016) WEB-DL 720p | L
  • В былые времена / Back in the Day (2016)


    • Комментарии (0):

      Информация

      Информация

        Посетители, находящиеся в группе Гости, не могут оставлять комментарии в данной новости.

        ↓ Меню



        ↓ Опрос

        А Вы добавили сайт в закладки?
        Да
        Не


        Top 10 за месяц (Фильмы)