.
Авторизация | Регистрация
Хочешь лучшие торренты? Добавь свой email!
Добавить




Мать (1955) DVDRip от New-Team скачать торрент бесплатно

Опубликовал: Админ | Дата: 21-06-2016, 12:36 | Просмотров: 123



Снималось в: СССР
Создали в: Киевская киностудия
Категория жанра: драма
Создали в: 1955
Время просмотра: 01: 36: 36
Перевод текста: Не требуется
Субтитры подготовлены: нет
Оригинальная аудиодорожка: русский
Главный режиссер: Марк Донской

Актеры

Вера Марецкая, Алексей Баталов, Никифор Колофидин, Андрей Петров, Павел Усовниченко, Сергей Курилов, Татьяна Пилецкая, Лилия Гриценко, Владимир Маренков, Павел Волков, Константин Немоляев, Иван Неганов...
Полный список актёров
Описание:
На заре XX века все так же беспросветна жизнь простой русской женщины Пелагеи Ниловны Власовой, жены чернорабочего-пропойцы. Неожиданная смерть главы семьи, кажется, не сулит ей никаких надежд, но, видя слезы матери, молодой Павел Власов отказывается от разгульной жизни. Увлекшись пролетарскими идеями, он распространяет листовки на фабрике и призывает рабочих бороться с угнетателями. Смелое преображение сына воодушевляет и саму Ниловну: робкая, страшащаяся людей женщина преисполняется гордости и самоуважения. Но хватит ли матери мужества продолжить дело своего единственного сына?



Источник: DVD5 R5
Качество фильма видео: DVDRip
Тип видео видео: AVI
Информация о видео: 672x496 (4: 3), 25 fps, XviD ~ 1410 kbps avg, 0.169 bit/pixel
Информация о звуке: 48 kHz, Dolby Digital AC3 2.0, 192 kbps
Раздача от:
MediaInfo

Общее
Полное имя : Mat.1955.DVDRip_New-team_by_AVP_Studio.avi
Формат : AVI
Формат/Информация : Audio Video Interleave
Размер файла : 1, 09 Гбайт
Продолжительность : 1 ч. 36 м.
Общий поток : 1612 Кбит/сек
Программа кодирования : VirtualDubMod 1.5.10.3 | www.virtualdub-fr.org || (build 2550/release)
Библиотека кодирования : VirtualDubMod build 2550/release
Видео
Идентификатор : 0
Формат : MPEG-4 Visual
Профиль формата : Advanced Simple@L5
Параметр BVOP формата : 1
Параметр QPel формата : Нет
Параметр GMC формата : Без точки перехода
Параметр матрицы формата : Выборочная
Идентификатор кодека : XVID
Идентификатор кодека/Подсказка : XviD
Продолжительность : 1 ч. 36 м.
Битрейт : 1410 Кбит/сек
Ширина : 672 пикселя
Высота : 496 пикселей
Соотношение сторон : 4: 3
Частота кадров : 25, 000 кадров/сек
Цветовое пространство : YUV
Субдискретизация насыщенности : 4: 2: 0
Битовая глубина : 8 бит
Тип развёртки : Прогрессивная
Метод сжатия : С потерями
Бит/(Пиксели*Кадры) : 0.169
Размер потока : 974 Мбайт (87%)
Библиотека кодирования : XviD 1.2.1 (UTC 2008-12-04)
Аудио
Идентификатор : 1
Формат : AC-3
Формат/Информация : Audio Coding 3
Расширение режима : CM (complete main)
Параметр Endianness формата : Big
Идентификатор кодека : 2000
Продолжительность : 1 ч. 36 м.
Вид битрейта : Постоянный
Битрейт : 192 Кбит/сек
Каналы : 2 канала
Расположение каналов : Front: L R
Частота : 48, 0 КГц
Частота кадров : 31, 250 кадров/сек (1536 spf)
Метод сжатия : С потерями
Размер потока : 133 Мбайт (12%)
Выравнивание : Разделение по промежуткам
Продолжительность промежутка : 40 мс. (1, 00 видеокадр)
Время предзагрузки промежутка : 500 мс

Скриншоты



Залил: AVPStudio

Онлайн видео Мать (1955) DVDRip от New


Размер скачиваемого торрента: 1.09 GB (1167867904 Bytes)

Мать (1955) DVDRip от New-Team
загрузка...
Рейтинг →
 (голосов: 1, оценка 5/5, голосовать можно 1 раз )

Другие торренты по теме:

  • Крёстная мать / Bella mafia (1997) DVDRip от Leon-masl
  • В чём мать родила / Босиком до шеи / Голая правда / Barfuss bis zum Hals (2009) DVDRip скачать через торрент бесплатно
  • Моя мать / Ma mre (2004) DVDRip
  • Мать / Mayrig (1991) DVDRip | P
  • Моя мать / Ma mre (2004) DVDRip-AVC от Temperest
  • Мать Иоанна от ангелов / Matka Joanna od aniolw (1961) DVDRip | D
  • Мать Иоанна от ангелов / Matka Joanna od aniolw (1961) DVDRip | D
  • Я счастлив, что моя мать жива / Je suis heureux que ma mre soit vivante (2009) DVDRip


    • Комментарии (0):

      Информация

      Информация

        Посетители, находящиеся в группе Гости, не могут оставлять комментарии в данной новости.

        ↓ Меню



        ↓ Опрос

        А Вы добавили сайт в закладки?
        Да
        Не


        Top 10 за месяц (Фильмы)