.
Авторизация | Регистрация
Хочешь лучшие торренты? Добавь свой email!
Добавить
» » В сердце моря / In the Heart of the Sea (2015) DVD5 | D скачать торрент бесплатно




    В сердце моря / In the Heart of the Sea (2015) DVD5 | D скачать торрент бесплатно

    Опубликовал: Админ | Дата: 18-06-2016, 19:27 | Просмотров: 73



    Детально о кино
    Русское название: В сердце моря
    Русское название в мировом прокате: In the Heart of the Sea
    Создали в: 2015
    Категория жанра: боевик, триллер, драма, приключения, биография, история
    Главный режиссер: Рон Ховард

    Актеры
    Крис Хемсворт, Бенджамин Уокер, Киллиан Мёрфи, Брендан Глисон, Бен Уишоу, Мишель Фэйрли, Том Холланд, Пол Андерсон, Фрэнк Диллэйн, Джозеф Моул

    Сюжет фильма

    В 1819 году американский корабль Эссекс с командой из двух десятков человек на борту отправился из порта в штате Массачусетс на китобойный промысел. Осенью 1820-го успешная на протяжении полутора лет охота была прервана атакой гигантского кашалота на судно, в результате чего морякам пришлось пересесть в шлюпки. В течение трех с лишним месяцев они боролись за выживание посреди океана…

    Снималось в: США, Австралия, Испания, Великобритания, Канада
    Киностудия: Spring Creek Productions, Village Roadshow Pictures, Warner Bros. Pictures
    Время просмотра: 117 мин./01: 57
    Перевод текста: полное дублирование
    Файл
    Кодек для видео: MPEG2
    Качество фильма: DVD5 (сжатый)
    Информация о видео: PAL 16: 9 (720x576@1024x576) VBR 4766 Kbps, 25.000 fps
    Информация о звуке: Dolby AC3, 6 ch, 48.0 KHz, 384 Kbps (русский, английский)
    Субтитры: русские, английские, чешские, эстонские, латышские, литовские, португальские
    Процесс изготовления диска
    Исходник: В сердце моря/In the Heart of the Sea (2015) DVD9 от New-Team | Лицензия
    Удалены: бонусы, предупреждающие надписи, чешская звуковая дорожка (в меню кнопки затерты). Команды диска переписаны заново, оставлен один VTS.
    Информация о видео сжато на 22.1%
    Меню: статичное, недействующие кнопки затерты и закрыты.
    Обработка и сжатие: DVD ReMake Pro + DVD Rebuilder + CCE SP2 7 проходов + Работа с меню (Adobe PhotoShop и MuxMan).
    Автор релиза: J9-1000
    MediaInfo
    Общее
    Полное имя : D: In the Heart of the Sea (2015) DVD5VIDEO_TSVTS_01_2.VOB
    Формат : MPEG-PS
    Размер файла : 1024 Мбайт
    Продолжительность : 25 м.
    Режим общего битрейта : Переменный
    Общий поток : 5646 Кбит/сек
    Видео
    Идентификатор : 224 (0xE0)
    Формат : MPEG Video
    Версия формата : Version 2
    Профиль формата : Main@Main
    Параметр BVOP формата : Да
    Параметр матрицы формата : Выборочная
    Параметр GOP формата : Variable
    Продолжительность : 25 м.
    Вид битрейта : Переменный
    Битрейт : 4766 Кбит/сек
    Максимальный битрейт : 8493 Кбит/сек
    Ширина : 720 пикселей
    Высота : 576 пикселей
    Соотношение сторон : 16: 9
    Частота кадров : 25, 000 кадров/сек
    Стандарт вещания : PAL
    Цветовое пространство : YUV
    Субдискретизация насыщенности : 4: 2: 0
    Битовая глубина : 8 бит
    Тип развёртки : Прогрессивная
    Порядок развёртки : Верхнее поле первое
    Метод сжатия : С потерями
    Бит/(Пиксели*Кадры) : 0.460
    Временной код первого кадра : 00: 27: 03: 11
    Оригинал временного кода : Group of pictures t_head
    GOP, открыто/закрыто : Открыто
    GOP, открыто/закрыто на первом кадре : Закрыто
    Размер потока : 864 Мбайт (84%)
    Аудио #1
    Идентификатор : 189 (0xBD)-128 (0x80)
    Формат : AC-3
    Формат/Информация : Audio Coding 3
    Расширение режима : CM (complete main)
    Параметр Endianness формата : Big
    Режим смешивания : DVD-Video
    Продолжительность : 25 м.
    Вид битрейта : Постоянный
    Битрейт : 384 Кбит/сек
    Каналы : 6 каналов
    Расположение каналов : Front: L C R, Side: L R, LFE
    Частота : 48, 0 КГц
    Частота кадров : 31, 250 кадров/сек (1536 spf)
    Метод сжатия : С потерями
    Задержка видео : -368 мс.
    Размер потока : 69, 6 Мбайт (7%)
    Аудио #2
    Идентификатор : 189 (0xBD)-130 (0x82)
    Формат : AC-3
    Формат/Информация : Audio Coding 3
    Расширение режима : CM (complete main)
    Параметр Endianness формата : Big
    Режим смешивания : DVD-Video
    Продолжительность : 25 м.
    Вид битрейта : Постоянный
    Битрейт : 384 Кбит/сек
    Каналы : 6 каналов
    Расположение каналов : Front: L C R, Side: L R, LFE
    Частота : 48, 0 КГц
    Частота кадров : 31, 250 кадров/сек (1536 spf)
    Метод сжатия : С потерями
    Задержка видео : -368 мс.
    Размер потока : 69, 6 Мбайт (7%)
    Текст #1
    Идентификатор : 189 (0xBD)-32 (0x20)
    Формат : RLE
    Формат/Информация : Run-length encoding
    Режим смешивания : DVD-Video
    Продолжительность : 25 м.
    Задержка видео : 3 с. 840 мс.
    Текст #2
    Идентификатор : 189 (0xBD)-33 (0x21)
    Формат : RLE
    Формат/Информация : Run-length encoding
    Режим смешивания : DVD-Video
    Текст #3
    Идентификатор : 189 (0xBD)-34 (0x22)
    Формат : RLE
    Формат/Информация : Run-length encoding
    Режим смешивания : DVD-Video
    Текст #4
    Идентификатор : 189 (0xBD)-35 (0x23)
    Формат : RLE
    Формат/Информация : Run-length encoding
    Режим смешивания : DVD-Video
    Текст #5
    Идентификатор : 189 (0xBD)-36 (0x24)
    Формат : RLE
    Формат/Информация : Run-length encoding
    Режим смешивания : DVD-Video
    Текст #6
    Идентификатор : 189 (0xBD)-37 (0x25)
    Формат : RLE
    Формат/Информация : Run-length encoding
    Режим смешивания : DVD-Video
    Текст #7
    Идентификатор : 189 (0xBD)-38 (0x26)
    Формат : RLE
    Формат/Информация : Run-length encoding
    Режим смешивания : DVD-Video
    Меню
    Скриншоты


    Залил: carisha

    Онлайн видео В сердце моря


    Размер скачиваемого торрента: 4.37 GB (4696901632 Bytes)

    В сердце моря/In the Heart of the Sea (2015) DVD5 | D
    загрузка...
    Рейтинг →
     (голосов: 1, оценка 3/5, голосовать можно 1 раз )

    Другие торренты по теме:

  • В сердце моря (2015) DVDRip
  • В сердце моря / In the Heart of the Sea (2015) BDRip 1080p от Ash61 | 3D-Video | halfOU | Line
  • В сердце моря (2015)
  • В сердце моря / In the heart of the sea (2015) BDRip | Живов
  • В сердце моря / In the Heart of the Sea (2015) BDRip 720p | D, A | Лицензия
  • В сердце моря / In the heart of the sea (2015) BDRip 720p от Scarabey | Лицензия
  • В сердце моря / In the Heart of the Sea (2015) BDRip от HQCLUB | D | Лицензия
  • В сердце моря / In the Heart of the Sea (2015) DVD9 от New-Team | Лицензия


    • Комментарии (0):

      Информация

      Информация

        Посетители, находящиеся в группе Гости, не могут оставлять комментарии в данной новости.

        ↓ Меню



        ↓ Опрос

        А Вы добавили сайт в закладки?
        Да
        Не


        Top 10 за месяц (Фильмы)