.
Авторизация | Регистрация
Хочешь лучшие торренты? Добавь свой email!
Добавить
» » Завещание Ленина (2007) DVDRip от New-Team скачать торрент бесплатно




    Завещание Ленина (2007) DVDRip от New-Team скачать торрент бесплатно

    Опубликовал: Админ | Дата: 18-06-2016, 19:27 | Просмотров: 116



    Снималось в: Россия
    Создали в: Эталон-фильм
    Категория жанра: драма
    Создали в: 2007
    Время просмотра: 12 серий ~ по 45 мин.
    Перевод текста: не требуется
    Субтитры: нет
    Оригинальная аудиодорожка: русский
    Главный режиссер: Николай Досталь

    Актеры

    Игорь Класс, Владимир Капустин, Елена Руфанова, Инга Оболдина, Владимир Конкин, Александр Трофимов, Ирина Муравьёва, Марк Наассан, Данила Козловский, Надежда Аникеева, Роман Мадянов, Алиса Хазанова, Тимофей Трибунцев, Михаил Крылов, Сергей Перелыгин, Елена Лядова, Виктор Бегунов, Эдуард Федашко, Николай Мачульский, Максим Гудков, Анна Рудь, Александр Обласов, Феликс Антипов, Александр Строев (II), Александр Яценко, Юрис Горнавс, Александр Коршунов, Дмитрий Мельников, Сергей Ануфриев, Алексей Шевченков, Сергей Кагаков, Дмитрий Тихонов, Сергей Оленберг, Вячеслав Ковалёв, Владимир Устюгов, Михаил Петухов, Валерий Золотухин, Ирина Розанова...
    Полный список актёров
    Описание:
    В основе сюжета - Колымские рассказы Варлама Шаламова
    Автор Колымских рассказов и многих других произведений 17 лет провел в страшных лагерях ГУЛАГа на Колыме. Срок, который получил Варлам Тихонович в 1929 году, был за распространение письма Ленина съезду, в котором тот критикует Сталина. В наше время это письмо называют завещанием Ленина…



    Исходник: 3хDVD9 R5
    Качество фильма видео: DVDRip
    Тип видео видео: AVI
    Информация о видео: 640х368 (1, 739: 1), 25 fps, XviD ~ 1040 kbps avg, 0.177 bit/pixel
    Информация о звуке: 48 kHz, MP3 2.0, 128 kbps
    Раздача от:
    MediaInfo

    Общее
    Полное имя : Zaveshanie.Lenina.1955.DVDRip-4.37_New-team_by_AVP_Studio3.avi
    Формат : AVI
    Формат/Информация : Audio Video Interleave
    Размер файла : 372 Мбайт
    Продолжительность : 44 м.
    Общий поток : 1178 Кбит/сек
    Программа кодирования : VirtualDubMod 1.5.10.3 | www.virtualdub-fr.org || (build 2550/release)
    Библиотека кодирования : VirtualDubMod build 2550/release
    Видео
    Идентификатор : 0
    Формат : MPEG-4 Visual
    Профиль формата : Advanced Simple@L5
    Параметр BVOP формата : 1
    Параметр QPel формата : Нет
    Параметр GMC формата : Без точки перехода
    Параметр матрицы формата : Выборочная
    Идентификатор кодека : XVID
    Идентификатор кодека/Подсказка : XviD
    Продолжительность : 44 м.
    Битрейт : 1040 Кбит/сек
    Ширина : 640 пикселей
    Высота : 368 пикселей
    Соотношение сторон : 1, 739
    Частота кадров : 25, 000 кадров/сек
    Цветовое пространство : YUV
    Субдискретизация насыщенности : 4: 2: 0
    Битовая глубина : 8 бит
    Тип развёртки : Прогрессивная
    Метод сжатия : С потерями
    Бит/(Пиксели*Кадры) : 0.177
    Размер потока : 328 Мбайт (88%)
    Библиотека кодирования : XviD 1.2.1 (UTC 2008-12-04)
    Аудио
    Идентификатор : 1
    Формат : MPEG Audio
    Версия формата : Version 1
    Профиль формата : Layer 3
    Идентификатор кодека : 55
    Идентификатор кодека/Подсказка : MP3
    Продолжительность : 44 м.
    Вид битрейта : Постоянный
    Битрейт : 128 Кбит/сек
    Каналы : 2 канала
    Частота : 48, 0 КГц
    Метод сжатия : С потерями
    Размер потока : 40, 4 Мбайт (11%)
    Выравнивание : Соединение по промежуткам
    Продолжительность промежутка : 40 мс. (1, 00 видеокадр)
    Время предзагрузки промежутка : 504 мс.
    Библиотека кодирования : LAME3.99r
    Залил: AVPStudio
    Размер скачиваемого торрента: 4.37 GB (4696111104 Bytes)


    Завещание Ленина (2007) DVDRip от New-Team
    загрузка...
    Рейтинг →
     (голосов: 1, оценка 5/5, голосовать можно 1 раз )

    Другие торренты по теме:

  • Завещание Ленина (2007) DVDRip от New-Team
  • Завещание Ленина (2007) DVDRip-AVC от New-Team


    • Комментарии (0):

      Информация

      Информация

        Посетители, находящиеся в группе Гости, не могут оставлять комментарии в данной новости.

        ↓ Меню



        ↓ Опрос

        А Вы добавили сайт в закладки?
        Да
        Не


        Top 10 за месяц (Фильмы)