.
Авторизация | Регистрация
Хочешь лучшие торренты? Добавь свой email!
Добавить
» » Близнецы-драконы / Seong lung wui (1991) BDRip | Р2 | Гонконгская версия скачать торрент бесплатно




    Близнецы-драконы / Seong lung wui (1991) BDRip | Р2 | Гонконгская версия скачать торрент бесплатно

    Опубликовал: Админ | Дата: 18-06-2016, 05:00 | Просмотров: 73



    Близнецы-драконы / Twin Dragons / Seong lung wui
    Снималось в: Гонконг
    Создали в: Dimension Films, Golden Way Films Ltd., Hong Kong Film Directors Guild
    Создали в: 1991
    Категория жанра: боевик, комедия
    Время просмотра: 01: 44: 42
    Главный режиссеры: Ринго Лам, Цуй Харк
    Авторы сценария: Бэрри Вонг, Цуй Харк, Танг Чо Джо Чунг

    Актеры
    Джеки Чан, Мэгги Чун, Тедди Робин Кван, Энтони Чан, Филип Чань, Сильвия Чан, Альфред Чун, Чи Люн Джэйкоб Чунг, Танг Чо Джо Чунг
    Описание: История двух близнецов, разлученных при рождении и оказавшихся в разных семьях и по разные стороны Тихого океана. Один из близнецов — специалист по боевым искусствам, хулиган и задира, работает автомехаником в гараже отеля, в котором останавливается во время гастролей в Гонконге, другой — знаменитый музыкант всемирно известный дирижер из Нью-Йорка. Когда они случайно встречаются, начинается невероятная заварушка..!

    Перевод текста: Профессиональный (двухголосый, закадровый) | Екатеринбург Арт
    Субтитры: нет
    Качество фильма: BDRip
    Тип видео: АVI
    Информация о видео кодек: XviD
    Информация о звуке кодек: АС3
    Информация о видео: 720x304 (2.37: 1), 23.976 fps, XviD build 65 ~1 798 kbps avg, 0.343 bit/pixel
    Информация о звуке: 48.0 kHz, AC3 Dolby Digital, 2/0 (L, R) ch, ~192 kbps avg
    Бюджет: $10 000 000
    Дата премьеры (мир): 15 января 1992
    Информация о различиях версий

    У фильма 2 версии: оригинальная от Golden Harvestи американская от Dimension Films. В оригинале более динамичная музыка, в паре сцен другая нарезка кадров, есть романтическая и комедийная сцены, вырезанные в американской версии. Также в версии от Dimension Filmsизменены имена персонажей — Джон Ма и Бумер (в оригинале — Я Ма и Крепкий орешек) и Тайсон (Тарзан в гонконгской версии).

    Media Info
    General
    Полное имя : Twin Dragons.1992.BD-Rip.XviD.1, 46Gb.AC3..avi
    Формат : AVI
    Формат/Информация : Audio Video Interleave
    Размер файла : 1, 46 Гбайт
    Продолжительность : 1 ч. 44 м.
    Общий поток : 2000 Кбит/сек
    Программа кодирования : VirtualDubMod 1.5.10.3 | (build 2550/release)
    Библиотека кодирования : VirtualDubMod build 2550/release
    Видео
    Идентификатор : 0
    Формат : MPEG-4 Visual
    Профиль формата : Advanced Simple@L5
    Параметр BVOP формата : 1
    Параметр QPel формата : Нет
    Параметр GMC формата : Без точки перехода
    Параметр матрицы формата : Выборочная
    Идентификатор кодека : XVID
    Идентификатор кодека/Подсказка : XviD
    Продолжительность : 1 ч. 44 м.
    Битрейт : 1798 Кбит/сек
    Ширина : 720 пикселей
    Высота : 304 пикселя
    Соотношение сторон : 2, 37: 1
    Частота кадров : 23, 976 кадра/сек
    Цветовое пространство : YUV
    Субдискретизация насыщенности : 4: 2: 0
    Битовая глубина : 8 бит
    Тип развёртки : Прогрессивная
    Метод сжатия : С потерями
    Бит/(Пиксели*Кадры) : 0.343
    Размер потока : 1, 32 Гбайт (90%)
    Библиотека кодирования : XviD 65
    Аудио
    Идентификатор : 1
    Формат : AC-3
    Формат/Информация : Audio Coding 3
    Расширение режима : CM (complete main)
    Параметр Endianness формата : Big
    Идентификатор кодека : 2000
    Продолжительность : 1 ч. 44 м.
    Вид битрейта : Постоянный
    Битрейт : 192 Кбит/сек
    Каналы : 2 канала
    Расположение каналов : Front: L R
    Частота : 48, 0 КГц
    Битовая глубина : 16 бит
    Метод сжатия : С потерями
    Размер потока : 144 Мбайт (10%)
    Выравнивание : Разделение по промежуткам
    Продолжительность промежутка : 42 мс. (1, 00 видеокадр)
    Время предзагрузки промежутка : 500 мс.

    Скриншоты

    Залил: Zha-4k-e

    Онлайн видео Близнецы-драконы


    Размер скачиваемого торрента: 1.46 GB (1570254848 Bytes)

    Близнецы-драконы/Seong lung wui (1991) BDRip | Р2 | Гонконгская версия
    загрузка...
    Рейтинг →
     (голосов: 1, оценка 3/5, голосовать можно 1 раз )

    Другие торренты по теме:

  • Близнецы драконы / Twin Dragons / Shuang long hui (1992) HDRip от Youtracker | КПК
  • Близнецы-драконы / Twin dragons / Shuang long hui (1992) BDRip 720p
  • Близнецы - драконы / Twin Dragons (1992) BDRip 1080p от NNNB | P скачать через торрент бесплатно


    • Комментарии (0):

      Информация

      Информация

        Посетители, находящиеся в группе Гости, не могут оставлять комментарии в данной новости.

        ↓ Меню



        ↓ Опрос

        А Вы добавили сайт в закладки?
        Да
        Не


        Top 10 за месяц (Фильмы)