.
Авторизация | Регистрация
Хочешь лучшие торренты? Добавь свой email!
Добавить
» » Проклятая / The New Daughter (2009) BDRip 720p | P, A скачать торрент бесплатно




    Проклятая / The New Daughter (2009) BDRip 720p | P, A скачать торрент бесплатно

    Опубликовал: Админ | Дата: 18-06-2016, 05:00 | Просмотров: 77



    Детально о кино
    Русское название: Проклятая
    Русское название в мировом прокате: The New Daughter
    Создали в: 2009
    Категория жанра: мистика, триллер
    Главный режиссер: Луисо Бердехо

    Актеры
    Кевин Костнер, Ивана Бакеро, Саманта Мэтис, Гэттлин Гриффит, Эрик Палладино, Ноа Тейлор, Джеймс Гэммон, Сандра Эллис Лэфферти, Маргарет Энн Флоренс, Кристофер Харви

    Сюжет фильма

    После тяжелого развода, Джон забирает обоих своих детей и переезжает в глухую деревушку в штате Иллинойс, чтобы начать жизнь сначала. Но вскоре его старшая дочь становится странной и замкнутой, а в семье начинают происходить загадочные и зловещие вещи.

    Снималось в: США
    Киностудия: Gold Circle Films, New Daughter Productions
    Время просмотра: 01: 47: 59
    Перевод текста: Профессиональный многоголосный закадровый, авторский закадровый Ю.Немахов
    Файл
    Кодек для видео: H.264
    Качество фильма: BDRip 720p | P, A
    Информация о видео: AVC, 1280x546 (2.35: 1), 23.976 fps ~ 4275 Kbps
    Информация о звуке:
    AC3, 48 KHz 6 ch ~ 384 Kb/s (профессиональный многоголосный)
    AC3, 48 KHz 6 ch ~ 448 Kb/s (Немахов)
    DTS, 48 KHz 6 ch ~ 1510 Kb/s (английский)
    Субтитры: русские
    MI:

    Общее
    Уникальный идентификатор : 203547388305773312394851412516755882247 (0x9921CD0FE8828CF18FA49E01CA764107)
    Полное имя : Q: TorFПРОКЛЯТАЯ(MVO+AVO).2009.BluRay.720P.DTS.x264-CHD.mkv
    Формат : Matroska
    Версия формата : Version 2
    Размер файла : 4, 99 Гбайт
    Продолжительность : 1 ч. 47 м.
    Общий поток : 6613 Кбит/сек
    Дата кодирования : UTC 2011-10-09 10: 30: 36
    Программа кодирования : mkvmerge v3.2.0 (;Beginnings;) built on Feb 12 2010 16: 46: 17
    Библиотека кодирования : libebml v0.7.9 + libmatroska v0.8.1
    Видео
    Идентификатор : 1
    Формат : AVC
    Формат/Информация : Advanced Video Codec
    Профиль формата : High@L4.1
    Параметр CABAC формата : Да
    Параметр ReFrames формата : 8 кадров
    Идентификатор кодека : V_MPEG4/ISO/AVC
    Продолжительность : 1 ч. 47 м.
    Битрейт : 4274 Кбит/сек
    Ширина : 1280 пикселей
    Высота : 546 пикселей
    Соотношение сторон : 2, 35: 1
    Частота кадров : 23, 976 кадра/сек
    Цветовое пространство : YUV
    Субдискретизация насыщенности : 4: 2: 0
    Битовая глубина : 8 бит
    Тип развёртки : Прогрессивная
    Бит/(Пиксели*Кадры) : 0.255
    Размер потока : 3, 12 Гбайт (63%)
    Библиотека кодирования : x264 core 88 r1471 1144615
    Настройки программы : cabac=1/ref=8/deblock=1: -3: -3/analyse=0x3: 0x113/me=umh/subme=9/psy=1/psy_rd=1.00: 0.10/mixed_ref=1/me_range=32/chroma_me=1/trellis=2/8x8dct=1/cqm=2/deadzone=21, 11/fast_pskip=0/chroma_qp_offset=-2/threads=6/sliced_threads=0/nr=0/decimate=1/mbaff=0/constrained_intra=0/bframes=3/b_pyramid=2/b_adapt=2/b_bias=0/direct=3/wpredb=1/wpredp=2/keyint=250/keyint_min=25/scenecut=40/intra_refresh=0/rc_lookahead=60/rc=2pass/mbtree=1/bitrate=4274/ratetol=1.0/qcomp=0.60/qpmin=10/qpmax=51/qpstep=4/cplxblur=20.0/qblur=0.5/vbv_maxrate=50000/vbv_bufsize=50000/ip_ratio=1.40/aq=1: 0.60
    Язык : English
    Default : Да
    Forced : Нет
    Аудио #1
    Идентификатор : 2
    Формат : AC-3
    Формат/Информация : Audio Coding 3
    Расширение режима : CM (complete main)
    Идентификатор кодека : A_AC3
    Продолжительность : 1 ч. 47 м.
    Вид битрейта : Постоянный
    Битрейт : 384 Кбит/сек
    Каналы : 6 каналов
    Расположение каналов : Front: L C R, Side: L R, LFE
    Частота : 48, 0 КГц
    Битовая глубина : 16 бит
    Метод сжатия : С потерями
    Размер потока : 297 Мбайт (6%)
    Заголовок : MVO R5
    Язык : Russian
    Default : Да
    Forced : Нет
    Аудио #2
    Идентификатор : 3
    Формат : AC-3
    Формат/Информация : Audio Coding 3
    Расширение режима : CM (complete main)
    Идентификатор кодека : A_AC3
    Продолжительность : 1 ч. 47 м.
    Вид битрейта : Постоянный
    Битрейт : 448 Кбит/сек
    Каналы : 6 каналов
    Расположение каналов : Front: L C R, Side: L R, LFE
    Частота : 48, 0 КГц
    Битовая глубина : 16 бит
    Метод сжатия : С потерями
    Размер потока : 346 Мбайт (7%)
    Заголовок : AVO Немахов
    Язык : Russian
    Default : Нет
    Forced : Нет
    Аудио #3
    Идентификатор : 4
    Формат : DTS
    Формат/Информация : Digital Theater Systems
    Идентификатор кодека : A_DTS
    Продолжительность : 1 ч. 47 м.
    Вид битрейта : Постоянный
    Битрейт : 1510 Кбит/сек
    Каналы : 6 каналов
    Расположение каналов : Front: L C R, Side: L R, LFE
    Частота : 48, 0 КГц
    Битовая глубина : 24 бит
    Метод сжатия : С потерями
    Размер потока : 1, 14 Гбайт (23%)
    Заголовок : English DTS 5.1 1510Kbps(From LPCM 5.1)
    Язык : English
    Default : Нет
    Forced : Нет
    Текст
    Идентификатор : 5
    Формат : UTF-8
    Идентификатор кодека : S_TEXT/UTF8
    Идентификатор кодека/Информация : UTF-8 Plain Text
    Заголовок : sub
    Язык : Russian
    Default : Нет
    Forced : Нет

    Семпл
    Скриншоты


    Онлайн видео Проклятая


    Размер скачиваемого торрента: 4.99 GB (5355995694 Bytes)

    Проклятая/The New Daughter (2009) BDRip 720p | P, A
    загрузка...
    Рейтинг →
     (голосов: 1, оценка 3/5, голосовать можно 1 раз )

    Другие торренты по теме:

  • Проклятая / The New Daughter (2009) BDRip-AVC от MediaClub
  • Проклятая / The New Daughter (2009) DVDRip от NovaLan | P, P2, A
  • Проклятая / The New Daughter (2009) BDRemux 1080p | P, P2, A


    • Комментарии (0):

      Информация

      Информация

        Посетители, находящиеся в группе Гости, не могут оставлять комментарии в данной новости.

        ↓ Меню



        ↓ Опрос

        А Вы добавили сайт в закладки?
        Да
        Не


        Top 10 за месяц (Фильмы)