.
Авторизация | Регистрация
Хочешь лучшие торренты? Добавь свой email!
Добавить
» » Дивергент, глава 3: За стеной / Allegiant (2016) WEB-DL 720p | iTunes скачать торрент бесплатно




    Дивергент, глава 3: За стеной / Allegiant (2016) WEB-DL 720p | iTunes скачать торрент бесплатно

    Опубликовал: Админ | Дата: 17-06-2016, 05:00 | Просмотров: 98



    Детально о кино
    Русское название: Дивергент, глава 3: За стеной
    Русское название в мировом прокате: Allegiant
    Создали в: 2016
    Категория жанра: фантастика, боевик, триллер, детектив, приключения
    Главный режиссер: Роберт Швентке

    Актеры
    Шейлин Вудли, Тео Джеймс, Энсел Элгорт, Зои Кравиц, Майлз Теллер, Джефф Дэниелс, Наоми Уоттс, Мэгги Кью, Билл Скарсгард, Кейнан Лонсдейл

    Сюжет фильма
    Трис и Фор впервые покидают город и своих близких и оказываются в опасном мире за стеной, отделяющей Чикаго, где им открывается шокирующая правда. Они должны быстро разобраться, кому можно доверять, так как битва, разгорающаяся за стенами города, угрожает всему человечеству. Чтобы выжить, Трис придется сделать непростой выбор между мужеством, верностью, любовью и необходимостью идти на жертвы.


    Снималось в: Китай, США
    Время просмотра: 02: 00: 20
    Тип перевода: Дублированное iTunes
    Файл
    Тип видео: MKV
    Качество фильма: WEB-DL 720p
    Информация о видео: MPEG-4 AVC, 4110 kb/s, 1280x720
    Информация о звуке: AC3, 384 kb/s (6 ch)
    MI

    Format : Matroska
    Format version : Version 2
    File size : 3.85 GiB
    Duration : 2h 0mn
    Overall bit rate : 4 586 Kbps
    Encoded date : UTC 2016-06-15 22: 08: 06
    Writing application : mkvmerge v8.3.0 (;Over the Horizon;) 64bit
    Writing library : libebml v1.3.1 + libmatroska v1.4.2
    DURATION : 02: 00: 20.928000000
    NUMBER_OF_FRAMES : 225654
    NUMBER_OF_BYTES : 346604544
    _STATISTICS_WRITING_APP : mkvmerge v8.3.0 (;Over the Horizon;) 64bit
    _STATISTICS_WRITING_DATE_UTC : 2016-06-15 22: 08: 06
    _STATISTICS_TAGS : BPS DURATION NUMBER_OF_FRAMES NUMBER_OF_BYTES
    Video
    ID : 1
    Format : AVC
    Format/Info : Advanced Video Codec
    Format profile : High@L4.1
    Format settings, CABAC : Yes
    Format settings, ReFrames : 4 frames
    Codec ID : V_MPEG4/ISO/AVC
    Duration : 2h 0mn
    Bit rate : 4 110 Kbps
    Width : 1 280 pixels
    Height : 720 pixels
    Display aspect ratio : 16: 9
    Frame rate mode : Constant
    Frame rate : 24.000 fps
    Color space : YUV
    Chroma subsampling : 4: 2: 0
    Bit depth : 8 bits
    Scan type : Progressive
    Bits/(Pixel*Frame) : 0.186
    Stream size : 3.46 GiB (90%)
    Language : Russian
    Default : Yes
    Forced : No
    Audio
    ID : 2
    Format : AC-3
    Format/Info : Audio Coding 3
    Mode extension : CM (complete main)
    Format settings, Endianness : Big
    Codec ID : A_AC3
    Duration : 2h 0mn
    Bit rate mode : Constant
    Bit rate : 384 Kbps
    Channel(s) : 6 channels
    Channel positions : Front: L C R, Side: L R, LFE
    Sampling rate : 48.0 KHz
    Bit depth : 16 bits
    Compression mode : Lossy
    Stream size : 331 MiB (8%)
    Language : Russian
    Default : Yes
    Forced : No
    Скриншоты






    Онлайн видео Дивергент, глава 3: За стеной


    Размер скачиваемого торрента: 3.85 GB (4138999402 Bytes)

    Дивергент, глава 3: За стеной/Allegiant (2016) WEB-DL 720p | iTunes
    загрузка...
    Рейтинг →
     (голосов: 1, оценка 4/5, голосовать можно 1 раз )

    Другие торренты по теме:

  • Дивергент, глава 2: Инсургент / Insurgent (2015) CAMRip
  • Дивергент, глава 2: Инсургент / Insurgent (2015) WEBRip | Звук с TS
  • Дивергент, глава 2: Инсургент / Insurgent (2015) HDTVRip–AVC | Чистый звук
  • Дивергент, глава 2: Инсургент / Insurgent (2015) HDTVRip | Чистый звук
  • Дивергент, глава 2: Инсургент / Insurgent (2015) HDRip от Scarabey | Чистый звук
  • Дивергент, глава 2: Инсургент / Insurgent (2015) BDRip 720p | iTunes
  • Дивергент, глава 2: Инсургент / Insurgent (2015) Blu-ray 1080p от HDCLUB | RUS Transfer | D | лицензия
  • Дивергент, глава 2: Инсургент / Insurgent (2015) BDRip 720p | Лицензия


    • Комментарии (0):

      Информация

      Информация

        Посетители, находящиеся в группе Гости, не могут оставлять комментарии в данной новости.

        ↓ Меню



        ↓ Опрос

        А Вы добавили сайт в закладки?
        Да
        Не


        Top 10 за месяц (Фильмы)