.
Авторизация | Регистрация
Хочешь лучшие торренты? Добавь свой email!
Добавить
» » Синхронность / Synchronicity (2015) BDRemux 1080p от ExKinoRay | L2 скачать торрент бесплатно




    Синхронность / Synchronicity (2015) BDRemux 1080p от ExKinoRay | L2 скачать торрент бесплатно

    Опубликовал: Админ | Дата: 16-06-2016, 05:00 | Просмотров: 85



    Детально о кино
    Русское название: Синхронность
    Русское название в мировом прокате: Synchronicity
    Создали в: 2015
    Категория жанра: Фантастика, триллер, детектив
    Главный режиссер: Джейкоб Гентри

    Актеры
    Чад МакНайт, Брианна Дэвис, Эй Джей Боуэн, Скотт Пойтресс, Майкл Айронсайд, Клер Бронсон, Эшли Дрейтон, Дерек Райан Дьюк, Эль Сункара

    Сюжет фильма

    Команда физиков во главе с Джимом Билом строит маленькую копию Большого адронного коллайдера и открывает червоточину в пространственно-временном континууме, делающую путешествия во времени реальностью. Заветное словосочетание будоражит умы корпоративных магнатов, но создатель машины времени, как водится, не хочет, чтобы грязными сапогами топтались по благородному делу. В попытках сохранить права на свое изобретение он встречается с загадочной femme fatale Эбби, но невольно выдает ей все свои секреты. Незадачливый ученый, уверенный что девушка заодно с одним из толстосумов, отправляется в прошлое, чтобы исправить ошибку, но путешествие преподносит ему сюрпризы — правду о девушке, о машине и о будущем самого Джима…

    Снималось в: США
    Киностудия: POP Films
    Время просмотра: 01: 40: 39
    Перевод текста: Любительский двухголосый (закадровый) | Rustorrents Production
    Файл
    Кодек для видео: MPEG-4
    Качество фильма: BDRemux 1080p
    Информация о видео: 1920x1080, 22.0 Mbit/s, 23.976 fps
    Информация о звуке:
    Информация о звуке #01: 48 kHz, AC3, 5.1, 640 Kbps | Любительский двухголосый (закадровый), Rustorrents Production | AC3
    Информация о звуке #02: 48 kHz, DTS, 5.1, 1510 kbps | Оригинал | DTS
    Субтитры: Английские
    Релиз подготовил: Автор релиза:

    MI
    General
    Unique ID : 197735954708443734367087198478295425553 (0x94C28F439DE0399BB62F9F0ED5DCE211)
    Complete name : F: VideoSynchronicity.2015.BDREMUX.1080p.ExKinoRay.mkv
    Format : Matroska
    Format version : Version 4/Version 2
    File size : 17.1 GiB
    Duration : 1h 40mn
    Overall bit rate mode : Variable
    Overall bit rate : 24.4 Mbps
    Movie name : Synchronicity.2015.BDREMUX.1080p.ExKinoRay
    Encoded date : UTC 2016-06-15 16: 02: 48
    Writing application : mkvmerge v8.3.0 (;Over the Horizon;) 64bit
    Writing library : libebml v1.3.1 + libmatroska v1.4.2
    Video
    ID : 1
    Format : AVC
    Format/Info : Advanced Video Codec
    Format profile : High@L4.1
    Format settings, CABAC : Yes
    Format settings, ReFrames : 4 frames
    Codec ID : V_MPEG4/ISO/AVC
    Duration : 1h 40mn
    Bit rate mode : Variable
    Bit rate : 22.0 Mbps
    Maximum bit rate : 35.0 Mbps
    Width : 1 920 pixels
    Height : 1 080 pixels
    Display aspect ratio : 16: 9
    Frame rate mode : Constant
    Frame rate : 23.976 (24000/1001) fps
    Standard : NTSC
    Color space : YUV
    Chroma subsampling : 4: 2: 0
    Bit depth : 8 bits
    Scan type : Progressive
    Bits/(Pixel*Frame) : 0.442
    Stream size : 15.4 GiB (90%)
    Title : Synchronicity.2015.BDREMUX.1080p.ExKinoRay.***селезень***
    Language : English
    Default : No
    Forced : No
    Color range : Limited
    Color primaries : BT.709
    Transfer characteristics : BT.709
    Matrix coefficients : BT.709
    Audio #1
    ID : 2
    Format : AC-3
    Format/Info : Audio Coding 3
    Mode extension : CM (complete main)
    Format settings, Endianness : Big
    Codec ID : A_AC3
    Duration : 1h 40mn
    Bit rate mode : Constant
    Bit rate : 640 Kbps
    Channel(s) : 6 channels
    Channel positions : Front: L C R, Side: L R, LFE
    Sampling rate : 48.0 KHz
    Frame rate : 31.250 fps (1536 spf)
    Compression mode : Lossy
    Stream size : 460 MiB (3%)
    Title : DVO DD 5.1
    Language : Russian
    Default : Yes
    Forced : No
    Audio #2
    ID : 3
    Format : DTS
    Format/Info : Digital Theater Systems
    Format profile : MA/Core
    Mode : 16
    Format settings, Endianness : Big
    Codec ID : A_DTS
    Duration : 1h 40mn
    Bit rate mode : Variable/Constant
    Bit rate : 1 783 Kbps/1 509 Kbps
    Channel(s) : 6 channels
    Channel positions : Front: L C R, Side: L R, LFE
    Sampling rate : 48.0 KHz
    Frame rate : 93.750 fps (512 spf)
    Bit depth : 16 bits
    Compression mode : Lossless/Lossy
    Stream size : 1.25 GiB (7%)
    Title : Original
    Language : English
    Default : No
    Forced : No
    Text #1
    ID : 4
    Format : UTF-8
    Codec ID : S_TEXT/UTF8
    Codec ID/Info : UTF-8 Plain Text
    Duration : 59mn 46s
    Bit rate : 1 bps
    Count of elements : 13
    Stream size : 712 Bytes (0%)
    Language : Russian
    Default : Yes
    Forced : No
    Text #2
    ID : 5
    Format : UTF-8
    Codec ID : S_TEXT/UTF8
    Codec ID/Info : UTF-8 Plain Text
    Duration : 1h 35mn
    Bit rate : 55 bps
    Count of elements : 1156
    Stream size : 39.1 KiB (0%)
    Title : Full
    Language : English
    Default : No
    Forced : No
    Text #3
    ID : 6
    Format : UTF-8
    Codec ID : S_TEXT/UTF8
    Codec ID/Info : UTF-8 Plain Text
    Duration : 1h 35mn
    Bit rate : 58 bps
    Count of elements : 1285
    Stream size : 41.1 KiB (0%)
    Title : SDH
    Language : English
    Default : No
    Forced : No
    Menu
    00: 00: 00.000 : en: 00: 00: 00.000
    00: 11: 54.422 : en: 00: 11: 54.422
    00: 21: 00.384 : en: 00: 21: 00.384
    00: 29: 41.780 : en: 00: 29: 41.780
    00: 39: 58.605 : en: 00: 39: 58.605
    00: 47: 57.875 : en: 00: 47: 57.875
    00: 57: 02.961 : en: 00: 57: 02.961
    01: 05: 19.582 : en: 01: 05: 19.582
    01: 12: 57.373 : en: 01: 12: 57.373
    01: 22: 52.176 : en: 01: 22: 52.176
    01: 30: 09.321 : en: 01: 30: 09.321
    01: 36: 18.147 : en: 01: 36: 18.147
    Примечание
    В местах без перевода, форсированные субтитры.
    Скриншоты


    Онлайн видео Синхронность


    Размер скачиваемого торрента: 17.14 GB (18402990091 Bytes)

    Синхронность/Synchronicity (2015) BDRemux 1080p от ExKinoRay | L2
    загрузка...
    Рейтинг →
     (голосов: 1, оценка 4/5, голосовать можно 1 раз )

    Другие торренты по теме:

  • Синхронность / Synchronicity (2015) BDRip 1080p от ExKinoRay | L2


    • Комментарии (0):

      Информация

      Информация

        Посетители, находящиеся в группе Гости, не могут оставлять комментарии в данной новости.

        ↓ Меню



        ↓ Опрос

        А Вы добавили сайт в закладки?
        Да
        Не


        Top 10 за месяц (Фильмы)