.
Авторизация | Регистрация
Хочешь лучшие торренты? Добавь свой email!
Добавить
» » Падший предвестник / Harbinger Down (2015) BDRip-AVC | L1 скачать торрент бесплатно




    Падший предвестник / Harbinger Down (2015) BDRip-AVC | L1 скачать торрент бесплатно

    Опубликовал: Админ | Дата: 15-06-2016, 05:00 | Просмотров: 62



    Создали в: США/Dark Dunes Productions, Studio ADI
    Категория жанра: Фантастика, Ужасы
    Время просмотра: 01: 22: 07
    Перевод текста: Одноголосый закадровый, любительский (Lord32x Studio)
    Субтитры: Английский
    Главный режиссер: Алек Гиллис
    Актеры: Лэнс Хенриксен, Камилль Бальзамо, Мэтт Уинстон, Джиовонни Семуэлс, Уинстон Джеймс, Френсис Майкл Эстим, Милла Бьорн, Джейсон Спир

    Описание фильма

    Краболовный корабль Предвестник отправляется в очередную экспедицию в океанские льды, но на этот раз на борту не только постоянный экипаж, но и несколько ученых, изучающих поведение подводной живности. Уже в море одна из исследователей засекает странный сигнал, который, как оказывается, идет от обледеневшего космического корабля, упавшего еще в начале восьмидесятых. Странную находку достают из глыбы льда, но это решение оказывается роковым – это возвращает к жизни эволюционировавший организм-паразит.

    Релиз подготовил: K.E.N
    Качество фильма видео: BDRip-AVC
    Информация о видео: AVC, 1024x428 (2.35: 1), 23.976 fps, 3 029 Kbps (0.288 bit/pixel)
    Информация о звуке #1: AC-3, 48.0 KHz, 6 ch, 384 Kbps, CBR (Russian)
    Информация о звуке #2: AC-3, 48.0 KHz, 6 ch, 384 Kbps, CBR (English)
    Mediainfo:
    Формат : Matroska
    Версия формата : Version 2
    Размер файла : 2, 17 Гбайт
    Продолжительность : 1 ч. 22 м.
    Общий поток : 3791 Кбит/сек
    Дата кодирования : UTC 2016-06-14 06: 43: 26
    Программа кодирования : mkvmerge v5.3.0 (;I could have danced;) built on Feb 9 2012 10: 38: 07
    Библиотека кодирования : libebml v1.2.3 + libmatroska v1.3.0
    Attachment : Yes
    Видео
    Идентификатор : 1
    Формат : AVC
    Формат/Информация : Advanced Video Codec
    Профиль формата : High@L4.1
    Параметр CABAC формата : Да
    Параметр ReFrames формата : 9 кадров
    Идентификатор кодека : V_MPEG4/ISO/AVC
    Продолжительность : 1 ч. 22 м.
    Битрейт : 3029 Кбит/сек
    Ширина : 1024 пикселя
    Высота : 428 пикселей
    Соотношение сторон : 2, 40: 1
    Режим частоты кадров : Постоянный
    Частота кадров : 23, 976 кадра/сек
    Цветовое пространство : YUV
    Субдискретизация насыщенности : 4: 2: 0
    Битовая глубина : 8 бит
    Тип развёртки : Прогрессивная
    Бит/(Пиксели*Кадры) : 0.288
    Размер потока : 1, 69 Гбайт (78%)
    Библиотека кодирования : x264 core 146 r2538 121396c
    Настройки программы : cabac=1/ref=9/deblock=1: -3: -3/analyse=0x3: 0x133/me=umh/subme=10/psy=1/psy_rd=1.00: 0.10/mixed_ref=1/me_range=32/chroma_me=1/trellis=2/8x8dct=1/cqm=0/deadzone=21, 11/fast_pskip=0/chroma_qp_offset=-3/threads=12/lookahead_threads=2/sliced_threads=0/nr=0/decimate=0/interlaced=0/bluray_compat=0/constrained_intra=0/bframes=8/b_pyramid=2/b_adapt=2/b_bias=0/direct=3/weightb=1/open_gop=0/weightp=2/keyint=240/keyint_min=23/scenecut=40/intra_refresh=0/rc_lookahead=40/rc=2pass/mbtree=0/bitrate=3029/ratetol=1.0/qcomp=0.60/qpmin=0/qpmax=69/qpstep=4/cplxblur=20.0/qblur=0.5/vbv_maxrate=50000/vbv_bufsize=62500/nal_hrd=none/filler=0/ip_ratio=1.40/pb_ratio=1.30/aq=2: 0.80
    Default : Да
    Forced : Нет
    Аудио #1
    Идентификатор : 2
    Формат : AC-3
    Формат/Информация : Audio Coding 3
    Расширение режима : CM (complete main)
    Параметр Endianness формата : Big
    Идентификатор кодека : A_AC3
    Продолжительность : 1 ч. 22 м.
    Вид битрейта : Постоянный
    Битрейт : 384 Кбит/сек
    Каналы : 6 каналов
    Расположение каналов : Front: L C R, Side: L R, LFE
    Частота : 48, 0 КГц
    Битовая глубина : 16 бит
    Метод сжатия : С потерями
    Задержка видео : 5 с. 0 мс.
    Размер потока : 226 Мбайт (10%)
    Заголовок : Любительское одноголосое Lord32x Studio
    Язык : Russian
    Default : Да
    Forced : Нет
    Аудио #2
    Идентификатор : 3
    Формат : AC-3
    Формат/Информация : Audio Coding 3
    Расширение режима : CM (complete main)
    Параметр Endianness формата : Big
    Идентификатор кодека : A_AC3
    Продолжительность : 1 ч. 22 м.
    Вид битрейта : Постоянный
    Битрейт : 384 Кбит/сек
    Каналы : 6 каналов
    Расположение каналов : Front: L C R, Side: L R, LFE
    Частота : 48, 0 КГц
    Битовая глубина : 16 бит
    Метод сжатия : С потерями
    Размер потока : 226 Мбайт (10%)
    Язык : English
    Default : Нет
    Forced : Нет
    Текст
    Идентификатор : 4
    Формат : UTF-8
    Идентификатор кодека : S_TEXT/UTF8
    Идентификатор кодека/Информация : UTF-8 Plain Text
    Язык : English
    Default : Нет
    Forced : Нет
    Меню
    00: 00: 00.000 : en: Chapter 01
    00: 07: 28.448 : en: Chapter 02
    00: 12: 59.904 : en: Chapter 03
    00: 21: 27.411 : en: Chapter 04
    00: 28: 53.857 : en: Chapter 05
    00: 35: 06.229 : en: Chapter 06
    00: 41: 19.602 : en: Chapter 07
    00: 48: 03.005 : en: Chapter 08
    00: 54: 54.416 : en: Chapter 09
    01: 00: 23.745 : en: Chapter 10
    01: 07: 33.174 : en: Chapter 11
    01: 17: 35.776 : en: Chapter 12

    Скриншоты:


    Онлайн видео Падший предвестник


    Размер скачиваемого торрента: 2.17 GB (2335049122 Bytes)

    Падший предвестник/Harbinger Down (2015) BDRip-AVC | L1
    загрузка...
    Рейтинг →
     (голосов: 1, оценка 5/5, голосовать можно 1 раз )

    Другие торренты по теме:

  • Падший предвестник / Harbinger Down (2015) BDRip-AVC от torrentfilm | L1
  • Падший предвестник / Harbinger Down (2015) HDRip от Portablius | L1


    • Комментарии (0):

      Информация

      Информация

        Посетители, находящиеся в группе Гости, не могут оставлять комментарии в данной новости.

        ↓ Меню



        ↓ Опрос

        А Вы добавили сайт в закладки?
        Да
        Не


        Top 10 за месяц (Фильмы)