.
Авторизация | Регистрация
Хочешь лучшие торренты? Добавь свой email!
Добавить
» » Восприятие / Perception (2012) WEB-DLRip | ТВ3 скачать торрент бесплатно




    Восприятие / Perception (2012) WEB-DLRip | ТВ3 скачать торрент бесплатно

    Опубликовал: Админ | Дата: 14-06-2016, 13:57 | Просмотров: 125



    Восприятие / Нейродетектив / Perception
    Снималось в: США
    Создали в: ABC Studios, Paperboy Productions
    Создали в: 2012
    Категория жанра: триллер, драма, криминал, детектив
    Сезон: 1
    Серии: 1-10 (из 10)
    Время просмотра: 10х ~00: 43: 00
    Главный режиссеры: Крис Мисиано, Кеннет Биллер, Грег Биман
    Авторы сценария: Кеннет Биллер, Майкл Суссман, Уоррен Хсю Леонард

    Актеры
    Эрик МакКормак, Рэйчел Ли Кук, Келли Роуэн, Эрджей Смит, ЛеВар Бёртон, Скотт Вулф, Брэд Роу, Джонатан Скарф
    Описание: Доктор Дэниел Пирс — талантливый, но эксцентричный нейрофизиолог, которого пригласили в ФБР для оказания помощи в расследовании наиболее сложных дел. Доктор Пирс работает в тесном сотрудничестве с Кейт Моретти, бывшей студенткой, которая и завербовала его для работы с Бюро. Также в команде есть Макс Левики — ассистент доктора Пирса и Натали Винсент — его лучший друг...

    Перевод текста: Профессиональный (полное дублирование) | ТВ3
    Субтитры: нет
    Качество фильма: WEB-DLRip
    Тип видео: АVI
    Информация о видео кодек: DivX
    Информация о звуке кодек: АС3
    Информация о видео: 720x400 (16: 9), 23.976 fps, DivX 5 ~1 350 kbps avg
    Информация о звуке №1: 48.0 kHz, AC3 Dolby Digital, 2/0 (L, R) ch, ~192 kbps | RUS
    Информация о звуке №2: 48.0 kHz, AC3 Dolby Digital, 2/0 (L, R) ch, ~192 kbps | ENG
    Дата премьеры (мир): 9 июля 2012
    Media Info
    General
    Полное имя : 1x01 - Pilot (Пилот).avi
    Формат : AVI
    Формат/Информация : Audio Video Interleave
    Размер файла : 553 Мбайт
    Продолжительность : 45 м.
    Общий поток : 1709 Кбит/сек
    Название фильма : Восприятие (Нейродетектив). Сезон 1/Perception. Season 1 (2012)
    Программа кодирования : VirtualDubMod 1.5.10.2 (build 2540/release)
    Библиотека кодирования : VirtualDubMod build 2540/release
    Видео
    Идентификатор : 0
    Формат : MPEG-4 Visual
    Профиль формата : Advanced Simple@L5
    Параметр BVOP формата : 1
    Параметр QPel формата : Нет
    Параметр GMC формата : Без точки перехода
    Параметр матрицы формата : Выборочная
    Идентификатор кодека : DX50
    Идентификатор кодека/Подсказка : DivX 5
    Продолжительность : 45 м.
    Битрейт : 1311 Кбит/сек
    Ширина : 720 пикселей
    Высота : 400 пикселей
    Соотношение сторон : 16: 9
    Частота кадров : 23, 976 (24000/1001) кадра/сек
    Цветовое пространство : YUV
    Субдискретизация насыщенности : 4: 2: 0
    Битовая глубина : 8 бит
    Тип развёртки : Прогрессивная
    Метод сжатия : С потерями
    Бит/(Пиксели*Кадры) : 0.190
    Размер потока : 424 Мбайт (77%)
    Библиотека кодирования : XviD 65
    Аудио #1
    Идентификатор : 1
    Формат : AC-3
    Формат/Информация : Audio Coding 3
    Расширение режима : CM (complete main)
    Параметр Endianness формата : Big
    Идентификатор кодека : 2000
    Продолжительность : 45 м.
    Вид битрейта : Постоянный
    Битрейт : 192 Кбит/сек
    Каналы : 2 канала
    Расположение каналов : Front: L R
    Частота : 48, 0 КГц
    Частота кадров : 31, 250 кадров/сек (1536 spf)
    Метод сжатия : С потерями
    Размер потока : 62, 1 Мбайт (11%)
    Выравнивание : Разделение по промежуткам
    Продолжительность промежутка : 42 мс. (1, 00 видеокадр)
    Время предзагрузки промежутка : 500 мс.
    Заголовок : Профессиональный (полное дублирование) ТВ3
    Аудио #2
    Идентификатор : 2
    Формат : AC-3
    Формат/Информация : Audio Coding 3
    Расширение режима : CM (complete main)
    Параметр Endianness формата : Big
    Идентификатор кодека : 2000
    Продолжительность : 45 м.
    Вид битрейта : Постоянный
    Битрейт : 192 Кбит/сек
    Каналы : 2 канала
    Расположение каналов : Front: L R
    Частота : 48, 0 КГц
    Частота кадров : 31, 250 кадров/сек (1536 spf)
    Метод сжатия : С потерями
    Размер потока : 62, 1 Мбайт (11%)
    Выравнивание : Разделение по промежуткам
    Продолжительность промежутка : 42 мс. (1, 00 видеокадр)
    Время предзагрузки промежутка : 500 мс.
    Заголовок : Английский

    Скриншоты

    Залил: Zha-4k-e

    Онлайн видео Восприятие


    Размер скачиваемого торрента: 5.40 GB (5793009664 Bytes)

    Восприятие/Perception (2012) WEB-DLRip | ТВ3
    загрузка...
    Рейтинг →
     (голосов: 1, оценка 3/5, голосовать можно 1 раз )

    Другие торренты по теме:

  • Восприятие / Perception (2012) WEB-DLRip, HDTVRip
  • Восприятие / Perception (2012) WEB-DLRip | Amedia
  • Восприятие / Perception (2014) WEB-DLRip | To4ka скачать через торрент бесплатно
  • Восприятие / Perception (2014) WEB-DLRip
  • Восприятие / Perception (2014-2015) WEBRip 720p | Padabajour
  • Восприятие / Perception (2014-2015) WEBRip 720p | L
  • Восприятие / Perception (2012) WEB-DL 720p | To4ka
  • Восприятие, 3 сезон 1-3 серии / Perception


    • Комментарии (0):

      Информация

      Информация

        Посетители, находящиеся в группе Гости, не могут оставлять комментарии в данной новости.

        ↓ Меню



        ↓ Опрос

        А Вы добавили сайт в закладки?
        Да
        Не


        Top 10 за месяц (Фильмы)