.
Авторизация | Регистрация
Хочешь лучшие торренты? Добавь свой email!
Добавить
» » Да здравствует Цезарь! / Hail, Caesar! (2016) BDRip 720p от Scarabey | Лицензия скачать торрент бесплатно




    Да здравствует Цезарь! / Hail, Caesar! (2016) BDRip 720p от Scarabey | Лицензия скачать торрент бесплатно

    Опубликовал: Админ | Дата: 13-06-2016, 05:00 | Просмотров: 42



    Создали в: 2016
    Снималось в: Великобритания, США, Япония
    Категория жанра: комедия, детектив
    Время просмотра: 01: 46: 06
    Перевод текста: Профессиональный (полное дублирование) Лицензия
    Субтитры: нет
    Главный режиссер: Итан Коэн/Ethan Coen, Джоэл Коэн/Joel Coen

    Актеры
    Джош Бролин, Джордж Клуни, Рэйф Файнс, Скарлетт Йоханссон, Ченнинг Татум, Джона Хилл, Дольф Лундгрен, Кристофер Ламберт, Тильда Суинтон, Фрэнсис МакДорманд, Майкл Гэмбон, Вероника Осорио, Олден Эренрайк
    Описание: Добро пожаловать в Голливуд — империю блеска, роскоши и порока. Здесь обитают кумиры миллионов. Что ни день — пиршество для светских хроникеров. И вот однажды исчезает исполнитель главной роли в фильме Да здравствует Цезарь!. Ни жена, ни многочисленные любовницы не знают, где он. И теперь продюсера студии ждет веселый денек, ведь он должен найти звезду раньше репортеров…
    Качество фильма видео: BDRip 720p
    Тип видео видео: MKV
    Информация о видео: 1280х692, 23.976 fps, AVC ~8783 kbps avg
    Информация о звуке: 48 kHz, AC3 Dolby Digital, 3/2 (L, C, R, l, r) + LFE ch, ~448 kbps
    Релиз подготовил:
    АНОНСЫ МОИХ РАЗДАЧ!


    Скриншоты


    МедиаИнфо

    Hail.Caesar.2016.720p_BDRip_scarabey.org.mkv
    Формат : Matroska
    Версия формата : Version 4/Version 2
    Размер файла : 6, 98 Гбайт
    Продолжительность : 1 ч. 46 м.
    Общий поток : 9418 Кбит/сек
    Дата кодирования : UTC 2016-06-11 15: 20: 35
    Программа кодирования : mkvmerge v6.1.0 (;Old Devil;) built on Mar 4 2013 09: 10: 42
    Библиотека кодирования : libebml v1.3.0 + libmatroska v1.4.0
    Видео
    Идентификатор : 1
    Формат : AVC
    Формат/Информация : Advanced Video Codec
    Профиль формата : High@L4.1
    Параметр CABAC формата : Да
    Параметр ReFrames формата : 9 кадров
    Идентификатор кодека : V_MPEG4/ISO/AVC
    Продолжительность : 1 ч. 46 м.
    Битрейт : 8783 Кбит/сек
    Ширина : 1280 пикселей
    Высота : 692 пикселя
    Соотношение сторон : 1, 85: 1
    Режим частоты кадров : Постоянный
    Частота кадров : 23, 976 (24000/1001) кадра/сек
    Цветовое пространство : YUV
    Субдискретизация насыщенности : 4: 2: 0
    Битовая глубина : 8 бит
    Тип развёртки : Прогрессивная
    Бит/(Пиксели*Кадры) : 0.414
    Размер потока : 6, 51 Гбайт (93%)
    Библиотека кодирования : x264 core 148 r2665kMod a01e339
    Настройки программы : cabac=1/ref=9/deblock=1: -3: -3/analyse=0x3: 0x133/me=umh/subme=10/psy=1/fade_compensate=0.00/psy_rd=1.00: 0.00/mixed_ref=1/me_range=24/chroma_me=1/trellis=2/8x8dct=1/cqm=0/deadzone=21, 11/fast_pskip=0/chroma_qp_offset=-2/threads=12/lookahead_threads=3/sliced_threads=0/nr=0/decimate=0/interlaced=0/bluray_compat=0/constrained_intra=0/fgo=0/bframes=11/b_pyramid=2/b_adapt=2/b_bias=0/direct=3/weightb=1/open_gop=0/weightp=2/keyint=250/keyint_min=23/scenecut=40/intra_refresh=0/rc_lookahead=60/rc=crf/mbtree=0/crf=16.3000/qcomp=0.65/qpmin=0/qpmax=69/qpstep=4/vbv_maxrate=62500/vbv_bufsize=78125/crf_max=0.0/nal_hrd=none/filler=0/ip_ratio=1.30/pb_ratio=1.20/aq=3: 0.75
    Язык : English
    Default : Да
    Forced : Нет
    Цветовой диапазон : Limited
    Коэффициенты матрицы : BT.709
    Аудио
    Идентификатор : 2
    Формат : AC-3
    Формат/Информация : Audio Coding 3
    Расширение режима : CM (complete main)
    Параметр Endianness формата : Big
    Идентификатор кодека : A_AC3
    Продолжительность : 1 ч. 46 м.
    Вид битрейта : Постоянный
    Битрейт : 448 Кбит/сек
    Каналы : 6 каналов
    Расположение каналов : Front: L C R, Side: L R, LFE
    Частота : 48, 0 КГц
    Частота кадров : 31, 250 кадров/сек (1536 spf)
    Метод сжатия : С потерями
    Размер потока : 340 Мбайт (5%)
    Заголовок : Дубляж - Лицензия
    Язык : Russian
    Default : Да
    Forced : Нет
    Меню
    00: 00: 00.000 : en: 00: 00: 00.000
    00: 03: 59.322 : en: 00: 03: 59.322
    00: 09: 38.369 : en: 00: 09: 38.369
    00: 12: 58.736 : en: 00: 12: 58.736
    00: 17: 34.178 : en: 00: 17: 34.178
    00: 22: 29.223 : en: 00: 22: 29.223
    00: 29: 55.961 : en: 00: 29: 55.961
    00: 35: 37.427 : en: 00: 35: 37.427
    00: 41: 49.090 : en: 00: 41: 49.090
    00: 47: 09.618 : en: 00: 47: 09.618
    00: 50: 40.746 : en: 00: 50: 40.746
    00: 57: 25.108 : en: 00: 57: 25.108
    01: 01: 17.424 : en: 01: 01: 17.424
    01: 07: 21.913 : en: 01: 07: 21.913
    01: 14: 02.229 : en: 01: 14: 02.229
    01: 17: 41.365 : en: 01: 17: 41.365
    01: 22: 38.704 : en: 01: 22: 38.704
    01: 28: 54.412 : en: 01: 28: 54.412
    01: 33: 50.959 : en: 01: 33: 50.959
    01: 39: 26.419 : en: 01: 39: 26.419


    Онлайн видео Да здравствует Цезарь!


    Размер скачиваемого торрента: 6.98 GB (7494191795 Bytes)

    Да здравствует Цезарь!/Hail, Caesar! (2016) BDRip 720p от Scarabey | Лицензия
    загрузка...
    Рейтинг →
     (голосов: 1, оценка 3/5, голосовать можно 1 раз )

    Другие торренты по теме:

  • Да здравствует Цезарь! / Hail, Caesar! (2016) WEB-DL 1080p от ExKinoRay | iTunes
  • Да здравствует Цезарь! / Hail, Caesar! (2016) WEB-DLRip от Scarabey | iTunes
  • Да здравствует Цезарь! / Hail, Caesar! (2016)
  • Да здравствует Цезарь! / Hail, Caesar! (2016) HDRip от MegaPeer | iTunes
  • Да здравствует Цезарь! / Hail, Caesar! (2016) BDRip 1080p | D | iTunes
  • Да здравствует Цезарь! / Hail, Caesar! (2016) BDRip 720p | D | iTunes
  • Да здравствует Цезарь! / Hail, Caesar! (2016) BDRip 720p от ExKinoRay | iTunes
  • Да здравствует Цезарь! / Hail, Caesar! (2016) BDRip 1080p от ExKinoRay | iTunes


    • Комментарии (0):

      Информация

      Информация

        Посетители, находящиеся в группе Гости, не могут оставлять комментарии в данной новости.

        ↓ Меню



        ↓ Опрос

        А Вы добавили сайт в закладки?
        Да
        Не


        Top 10 за месяц (Фильмы)