.
Авторизация | Регистрация
Хочешь лучшие торренты? Добавь свой email!
Добавить
» » Заточенные кепки / Острые козырьки / Peaky Blinders (2016) HDTV 720p | Sunshine Studio скачать торрент бесплатно




    Заточенные кепки / Острые козырьки / Peaky Blinders (2016) HDTV 720p | Sunshine Studio скачать торрент бесплатно

    Опубликовал: Админ | Дата: 12-06-2016, 15:36 | Просмотров: 53



    Русское название: Острые козырьки
    Русское название в мировом прокате: Peaky Blinders
    Создали в: 2016
    Категория жанра: драма, криминал
    Главный режиссеры:
    Колм МакКарти, Тим Милантс, Отто Баферст

    Актеры

    Киллиан Мёрфи, Сэм Нилл, Хелен МакКрори, Аннабелль Уоллис, Иддо Голдберг, Пол Андерсон, Софи Рандл, Джо Коул, Чарли Крид-Майлз, Том Харди и др.
    Описание сериала:
    Британский сериал о криминальном мире Бирмингема 20-х годов прошлого века, в котором многолюдная семья Шелби стала одной из самых жестоких и влиятельных гангстерских банд послевоенного времени. Фирменным знаком группировки, промышлявшей грабежами и азартными играми, стали зашитые в козырьки лезвия.

    Файл
    Тип видео: MKV
    Качество фильма: HDTV 720р
    Снималось в: Великобритания
    Время просмотра: ~ 00: 55: 00
    Перевод текста: Любительский (двухголосый) Sunshine Studio
    Субтитры: Отсутствуют
    Реклама: Присутствует
    Информация о видео: MPEG-4 AVC, 3000 Кбит/с, 1280x720
    Информация о звуке: 48 kHz, AC3 Dolby Digital, 2/0 (L, R) ch, ~192 kbps
    Релиз группа:

    MediaInfo
    Формат : Matroska
    Версия формата : Version 4/Version 2
    Размер файла : 1, 25 Гбайт
    Продолжительность : 55 м.
    Общий поток : 3194 Кбит/сек
    Дата кодирования : UTC 2016-05-06 03: 13: 30
    Программа кодирования : mkvmerge v6.0.0 (;Coming Up For Air;) built on Jan 20 2013 09: 52: 00
    Библиотека кодирования : libebml v1.3.0 + libmatroska v1.4.0
    Видео
    Идентификатор : 1
    Формат : AVC
    Формат/Информация : Advanced Video Codec
    Профиль формата : High@L1.3
    Параметр CABAC формата : Нет
    Параметр ReFrames формата : 5 кадров
    Параметр GOP формата : M=1, N=12
    Идентификатор кодека : V_MPEG4/ISO/AVC
    Продолжительность : 55 м.
    Битрейт : 2939 Кбит/сек
    Ширина : 1280 пикселей
    Высота : 720 пикселей
    Соотношение сторон : 16: 9
    Режим частоты кадров : Постоянный
    Частота кадров : 25, 000 кадров/сек
    Цветовое пространство : YUV
    Субдискретизация насыщенности : 4: 2: 0
    Битовая глубина : 8 бит
    Тип развёртки : Прогрессивная
    Бит/(Пиксели*Кадры) : 0.128
    Размер потока : 1, 15 Гбайт (92%)
    Default : Да
    Forced : Нет
    Аудио
    Идентификатор : 2
    Формат : AC-3
    Формат/Информация : Audio Coding 3
    Расширение режима : CM (complete main)
    Параметр Endianness формата : Big
    Идентификатор кодека : A_AC3
    Продолжительность : 55 м.
    Вид битрейта : Постоянный
    Битрейт : 192 Кбит/сек
    Каналы : 2 канала
    Расположение каналов : Front: L R
    Частота : 48, 0 КГц
    Частота кадров : 31, 250 кадров/сек (1536 spf)
    Метод сжатия : С потерями
    Размер потока : 76, 8 Мбайт (6%)
    Default : Да
    Forced : Нет
    Скриншоты

    Залил: SPARTA111

    Онлайн видео Заточенные кепки


    Размер скачиваемого торрента: 10.05 GB (10796273839 Bytes)

    Заточенные кепки/Острые козырьки/Peaky Blinders (2016) HDTV 720p | Sunshine Studio
    загрузка...
    Рейтинг →
     (голосов: 1, оценка 5/5, голосовать можно 1 раз )

    Другие торренты по теме:

  • Заточенные кепки / Peaky Blinders (2013) HDTVRip | ColdFilm
  • Заточенные кепки / Острые козырьки / Peaky Blinders (2013) WEB-DLRip | AlexFilm скачать через торрент бесплатно
  • Заточенные кепки / Острые козырьки / Peaky Blinders (2013) HDTVRip | ColdFilm
  • Острые козырьки / Заточенные кепки / Peaky Blinders (2013) HDTVRip | Ozz
  • Заточенные кепки / Острые козырьки / Peaky Blinders (2013) WEB-DLRip | LostFilm
  • Заточенные кепки / Острые козырьки / Peaky Blinders (2013) BDRip 720p | AlexFilm скачать через торрент бесплатно
  • Заточенные кепки / Острые козырьки / Peaky Blinders (2013) WEB-DLRip 720p | LostFilm
  • Заточенные кепки / Peaky Blinders (2013) WEB-DLRip | LostFilm | iPhone скачать через торрент бесплатно


    • Комментарии (0):

      Информация

      Информация

        Посетители, находящиеся в группе Гости, не могут оставлять комментарии в данной новости.

        ↓ Меню



        ↓ Опрос

        А Вы добавили сайт в закладки?
        Да
        Не


        Top 10 за месяц (Фильмы)