.
Авторизация | Регистрация
Хочешь лучшие торренты? Добавь свой email!
Добавить
» » Торденшельд и Колд / Tordenskjold Kold (2016) WEB-DLRip-AVC | L1 скачать торрент бесплатно




    Торденшельд и Колд / Tordenskjold Kold (2016) WEB-DLRip-AVC | L1 скачать торрент бесплатно

    Опубликовал: Админ | Дата: 11-06-2016, 10:06 | Просмотров: 62



    Детально о кино
    Русское название: Торденшельд и Колд
    Русское название в мировом прокате: Tordenskjold Kold
    Создали в: 2016
    Категория жанра: драма, комедия
    Главный режиссер: Генрик Рубен Генц

    Актеры
    Natalie Manduno, Якоб Офтебро, Давид Денсик, Джули Аньет Ванг, Юэль Спира, Мари Хаммер Бода, Бьёрн Чьелльман, Оле, Кристоффер Эртвог, Йонас Хофф Офтебро, Кеннет М. Кристенсен

    Сюжет фильма
    Дания, 1720 год. Заканчивается Великая Северная война. Знаменитый датско-норвежский флотоводец Петер Вессель Торденшельд сходит на берег и остаётся не у дел. Он ведёт разгульный образ жизни, берёт от жизни всё. Однажды под влиянием своего камердинера Кольда он решает всё-таки остепениться и завести семью. Но многочисленные враги, которые остались у Торденшельда даже среди соотечественников, не оставляют его в покое.

    Снималось в: Дания/Anagram, Hummel Nimbus, Nimbus Film ApS, Sirena Film
    Время просмотра: 01: 33: 44
    Перевод текста: Любительский (одноголосый) datynet
    Файл
    Качество фильма: WEB-DLRip-AVC
    Тип видео: MKV
    Информация о видео: AVC, 2500 Kb/s, 1024x432
    Информация о звуке: Russian: AC3, 192 Kb/s (2 ch), Danish: AC3, 384 Kb/s (6 ch)
    Субтитры: Russian (внешние)
    Дополнительно: Сохранены оригинальные чаптеры

    MediaInfo:
    General
    Unique ID : 43520919373838808262708792645551035337 (0x20BDD2FDA71AEA413851FA12A8D293C9)
    Complete name : H: ДИСК1.ФИЛЬМЫТорденшельд и Колд Tordenskjold Kold (2016)Tordenskjold.Kold.2016.L1.WEB-DLRip-AVC.mkv
    Format : Matroska
    Format version : Version 4/Version 2
    File size : 2.06 GiB
    Duration : 1h 33mn
    Overall bit rate : 3 144 Kbps
    Writing application : XviD4PSP 7.0.273 DAILY
    Writing library : Lavf57.25.100
    ENCODING_INFO : MATROSKA, WEBM MKV/H264 X264 VBR-2P 2500kbps Произвольный/AC3 AC3 CBR 192kbps/AC3 AC3 CBR 480kbps
    Video
    ID : 1
    Format : AVC
    Format/Info : Advanced Video Codec
    Format profile : High@L4.1
    Format settings, CABAC : Yes
    Format settings, ReFrames : 8 frames
    Codec ID : V_MPEG4/ISO/AVC
    Bit rate : 2 500 Kbps
    Width : 1 024 pixels
    Height : 432 pixels
    Display aspect ratio : 2.35: 1
    Original display aspect ratio : 2.35: 1
    Frame rate mode : Variable
    Original frame rate : 25.000 fps
    Color space : YUV
    Chroma subsampling : 4: 2: 0
    Bit depth : 8 bits
    Scan type : Progressive
    Bits/(Pixel*Frame) : 0.226
    Writing library : x264 core 148 r2694M 3b70645
    Encoding settings : cabac=1/ref=8/deblock=1: -3: -3/analyse=0x3: 0x133/me=umh/subme=9/psy=1/psy_rd=1.00: 0.20/mixed_ref=1/me_range=16/chroma_me=1/trellis=2/8x8dct=1/cqm=0/deadzone=21, 11/fast_pskip=1/chroma_qp_offset=-3/threads=9/lookahead_threads=1/sliced_threads=0/nr=0/decimate=1/interlaced=0/bluray_compat=0/constrained_intra=0/bframes=8/b_pyramid=2/b_adapt=2/b_bias=0/direct=3/weightb=1/open_gop=0/weightp=2/keyint=250/keyint_min=25/scenecut=40/intra_refresh=0/rc_lookahead=40/rc=2pass/mbtree=1/bitrate=2500/ratetol=1.0/qcomp=0.60/qpmin=0/qpmax=69/qpstep=4/cplxblur=20.0/qblur=0.5/ip_ratio=1.40/aq=1: 1.00
    Language : English
    Default : Yes
    Forced : No
    Color range : Limited
    Color primaries : BT.709
    Transfer characteristics : BT.709
    Matrix coefficients : BT.709
    DURATION : 01: 33: 43.965000000
    Audio #1
    ID : 2
    Format : AC-3
    Format/Info : Audio Coding 3
    Mode extension : CM (complete main)
    Format settings, Endianness : Big
    Codec ID : A_AC3
    Duration : 1h 33mn
    Bit rate mode : Constant
    Bit rate : 192 Kbps
    Channel(s) : 2 channels
    Channel positions : Front: L R
    Sampling rate : 48.0 KHz
    Bit depth : 32 bits
    Compression mode : Lossy
    Stream size : 129 MiB (6%)
    Language : Russian
    Default : Yes
    Forced : No
    DURATION : 01: 33: 43.936000000
    Audio #2
    ID : 3
    Format : AC-3
    Format/Info : Audio Coding 3
    Mode extension : CM (complete main)
    Format settings, Endianness : Big
    Codec ID : A_AC3
    Duration : 1h 33mn
    Bit rate mode : Constant
    Bit rate : 448 Kbps
    Channel(s) : 6 channels
    Channel positions : Front: L C R, Side: L R, LFE
    Sampling rate : 48.0 KHz
    Bit depth : 32 bits
    Compression mode : Lossy
    Stream size : 300 MiB (14%)
    Language : Danish
    Default : No
    Forced : No
    DURATION : 01: 33: 44.000000000
    Text
    ID : 4
    Format : UTF-8
    Codec ID : S_TEXT/UTF8
    Codec ID/Info : UTF-8 Plain Text
    Language : Russian
    Default : Yes
    Forced : No
    DURATION : 01: 29: 56.965000000
    Menu
    00: 00: 00.000 : : 1
    00: 15: 00.000 : : 2
    00: 30: 00.000 : : 3
    00: 45: 00.000 : : 4
    01: 00: 00.000 : : 5
    01: 15: 00.000 : : 6
    01: 29: 59.000 : : 7
    Скриншоты


    Онлайн видео Торденшельд и Колд


    Размер скачиваемого торрента: 2.06 GB (2210125098 Bytes)

    Торденшельд и Колд/Tordenskjold Kold (2016) WEB-DLRip-AVC | L1
    загрузка...
    Рейтинг →
     (голосов: 1, оценка 4/5, голосовать можно 1 раз )

    Другие торренты по теме:

  • Торденшельд и Колд / Tordenskjold Kold (2016) WEB-DL 1080p | L1
  • Торденшельд и Колд / Tordenskjold Kold (2016) WEB-DLRip от Portablius | L1


    • Комментарии (0):

      Информация

      Информация

        Посетители, находящиеся в группе Гости, не могут оставлять комментарии в данной новости.

        ↓ Меню



        ↓ Опрос

        А Вы добавили сайт в закладки?
        Да
        Не


        Top 10 за месяц (Фильмы)