.
Авторизация | Регистрация
Хочешь лучшие торренты? Добавь свой email!
Добавить
» » Эдди Орел / Eddie the Eagle (2016) BDRip 1080p от ExKinoRay | iTunes скачать торрент бесплатно




    Эдди Орел / Eddie the Eagle (2016) BDRip 1080p от ExKinoRay | iTunes скачать торрент бесплатно

    Опубликовал: Админ | Дата: 11-06-2016, 10:06 | Просмотров: 72



    Детально о кино
    Русское название: Эдди Орел
    Русское название в мировом прокате: Eddie the Eagle
    Создали в: 2016
    Категория жанра: Драма, комедия, биография, спорт
    Главный режиссер: Декстер Флетчер

    Актеры
    Тэрон Эджертон, Хью Джекман, Кристофер Уокен, Джо Хартли, Том Костелло, Кит Аллен, Дикон Толсон, Джек Костелло, Марк Бентон, Тим МакИннерни, Эдвин Эндре, Мэдс Сьёгард Петтерсен, Марк Бенжамин, Айрис Бербен, Рюн Темт, Карлтон Банс, Йоахим Рааф, Шон Джексон, Дэниэл Ингс, Джим Бродбент

    Сюжет фильма

    Фильм повествует о трамплинисте Эдди, по прозвищу Орел. Он прославился благодаря своим неудачам, ибо на всех соревнованиях он занимал последние места.

    Снималось в: Великобритания, США, Германия
    Киностудия: Marv Films, Saville Productions, Studio Babelsberg
    Время просмотра: 01: 45: 00
    Перевод текста: Дублированный | iTunes
    Файл
    Кодек для видео: MPEG-4
    Качество фильма: BDRip 1080p
    Информация о видео: 1920x804, 15.3 Mbit/s, 23.976 fps
    Информация о звуке:
    Информация о звуке #01: 48 kHz, AC3, 5.1, 384 Kbps | Дублированный, iTunes | AC3
    Информация о звуке #02: 48 kHz, DTS, 5.1, 1510 kbps | Оригинал | DTS
    Субтитры: Русские (forced, full), английские (forced, full, SDH)
    Релиз подготовил: Автор релиза:

    MI
    General
    Unique ID : 248618115216588469109206176502514112180 (0xBB0A1B76C91CDC51877F457F3616D6B4)
    Complete name : F: VideoEddie.The.Eagle.2016.BDRip.1080p.ExKinoRay.mkv
    Format : Matroska
    Format version : Version 4/Version 2
    File size : 12.7 GiB
    Duration : 1h 45mn
    Overall bit rate : 17.2 Mbps
    Movie name : Eddie.The.Eagle.2016.BDRip.1080p.ExKinoRay
    Encoded date : UTC 2016-06-10 04: 02: 39
    Writing application : mkvmerge v8.3.0 (;Over the Horizon;) 64bit
    Writing library : libebml v1.3.1 + libmatroska v1.4.2
    Video
    ID : 1
    Format : AVC
    Format/Info : Advanced Video Codec
    Format profile : High@L4.1
    Format settings, CABAC : Yes
    Format settings, ReFrames : 5 frames
    Codec ID : V_MPEG4/ISO/AVC
    Duration : 1h 45mn
    Bit rate : 15.3 Mbps
    Width : 1 920 pixels
    Height : 804 pixels
    Display aspect ratio : 2.40: 1
    Frame rate mode : Constant
    Frame rate : 23.976 (24000/1001) fps
    Color space : YUV
    Chroma subsampling : 4: 2: 0
    Bit depth : 8 bits
    Scan type : Progressive
    Bits/(Pixel*Frame) : 0.414
    Stream size : 11.3 GiB (89%)
    Writing library : x264 core 146 r2538 121396c
    Encoding settings : cabac=1/ref=5/deblock=1: -3: -3/analyse=0x3: 0x133/me=tesa/subme=11/psy=1/psy_rd=1.04: 0.00/mixed_ref=1/me_range=32/chroma_me=1/trellis=2/8x8dct=1/cqm=0/deadzone=21, 11/fast_pskip=0/chroma_qp_offset=-2/threads=48/lookahead_threads=6/sliced_threads=0/nr=0/decimate=0/interlaced=0/bluray_compat=0/constrained_intra=0/bframes=11/b_pyramid=2/b_adapt=2/b_bias=0/direct=3/weightb=1/open_gop=0/weightp=2/keyint=240/keyint_min=23/scenecut=40/intra_refresh=0/rc_lookahead=150/rc=crf/mbtree=0/crf=13.2/qcomp=0.60/qpmin=0/qpmax=69/qpstep=4/vbv_maxrate=62500/vbv_bufsize=78125/crf_max=0.0/nal_hrd=none/filler=0/ip_ratio=1.40/pb_ratio=1.30/aq=1: 0.80
    Language : English
    Default : Yes
    Forced : No
    Audio #1
    ID : 2
    Format : AC-3
    Format/Info : Audio Coding 3
    Mode extension : CM (complete main)
    Format settings, Endianness : Big
    Codec ID : A_AC3
    Duration : 1h 45mn
    Bit rate mode : Constant
    Bit rate : 384 Kbps
    Channel(s) : 6 channels
    Channel positions : Front: L C R, Side: L R, LFE
    Sampling rate : 48.0 KHz
    Frame rate : 31.250 fps (1536 spf)
    Compression mode : Lossy
    Stream size : 290 MiB (2%)
    Title : DUB iTunes
    Language : Russian
    Default : Yes
    Forced : No
    Audio #2
    ID : 3
    Format : DTS
    Format/Info : Digital Theater Systems
    Mode : 16
    Format settings, Endianness : Big
    Codec ID : A_DTS
    Duration : 1h 45mn
    Bit rate mode : Constant
    Bit rate : 1 509 Kbps
    Channel(s) : 6 channels
    Channel positions : Front: L C R, Side: L R, LFE
    Sampling rate : 48.0 KHz
    Frame rate : 93.750 fps (512 spf)
    Bit depth : 24 bits
    Compression mode : Lossy
    Stream size : 1.11 GiB (9%)
    Title : Original
    Language : English
    Default : No
    Forced : No
    Text #1
    ID : 4
    Format : UTF-8
    Codec ID : S_TEXT/UTF8
    Codec ID/Info : UTF-8 Plain Text
    Duration : 1h 40mn
    Bit rate : 2 bps
    Count of elements : 25
    Stream size : 1.53 KiB (0%)
    Title : Forced
    Language : Russian
    Default : Yes
    Forced : No
    Text #2
    ID : 5
    Format : UTF-8
    Codec ID : S_TEXT/UTF8
    Codec ID/Info : UTF-8 Plain Text
    Duration : 1h 40mn
    Bit rate : 88 bps
    Count of elements : 1143
    Stream size : 65.0 KiB (0%)
    Title : Full
    Language : Russian
    Default : No
    Forced : No
    Text #3
    ID : 6
    Format : UTF-8
    Codec ID : S_TEXT/UTF8
    Codec ID/Info : UTF-8 Plain Text
    Duration : 29mn 18s
    Bit rate : 0 bps
    Count of elements : 4
    Stream size : 104 Bytes (0%)
    Title : Forced
    Language : English
    Default : No
    Forced : No
    Text #4
    ID : 7
    Format : UTF-8
    Codec ID : S_TEXT/UTF8
    Codec ID/Info : UTF-8 Plain Text
    Duration : 1h 44mn
    Bit rate : 60 bps
    Count of elements : 1501
    Stream size : 46.1 KiB (0%)
    Title : Full
    Language : English
    Default : No
    Forced : No
    Text #5
    ID : 8
    Format : UTF-8
    Codec ID : S_TEXT/UTF8
    Codec ID/Info : UTF-8 Plain Text
    Duration : 1h 44mn
    Bit rate : 64 bps
    Count of elements : 1639
    Stream size : 49.3 KiB (0%)
    Title : SDH
    Language : English
    Default : No
    Forced : No
    Menu
    00: 00: 00.000 : en: Chapter 1
    00: 03: 33.171 : en: Chapter 2
    00: 08: 15.161 : en: Chapter 3
    00: 12: 06.684 : en: Chapter 4
    00: 17: 54.573 : en: Chapter 5
    00: 21: 31.081 : en: Chapter 6
    00: 26: 19.578 : en: Chapter 7
    00: 31: 41.566 : en: Chapter 8
    00: 37: 13.273 : en: Chapter 9
    00: 41: 46.963 : en: Chapter 10
    00: 47: 12.329 : en: Chapter 11
    00: 50: 19.350 : en: Chapter 12
    00: 53: 39.591 : en: Chapter 13
    00: 56: 57.581 : en: Chapter 14
    01: 02: 22.906 : en: Chapter 15
    01: 08: 16.884 : en: Chapter 16
    01: 11: 42.298 : en: Chapter 17
    01: 17: 05.788 : en: Chapter 18
    01: 20: 00.587 : en: Chapter 19
    01: 23: 23.457 : en: Chapter 20
    01: 27: 44.593 : en: Chapter 21
    01: 31: 40.120 : en: Chapter 22
    01: 36: 53.057 : en: Chapter 23
    01: 40: 42.078 : en: Chapter 24
    Скриншоты


    Онлайн видео Эдди Орел


    Размер скачиваемого торрента: 12.72 GB (13658966117 Bytes)

    Эдди Орел/Eddie the Eagle (2016) BDRip 1080p от ExKinoRay | iTunes
    загрузка...
    Рейтинг →
     (голосов: 1, оценка 5/5, голосовать можно 1 раз )

    Другие торренты по теме:

  • Эдди Орел / Eddie the Eagle (2016) WEBRip 720p | Line
  • Эдди Орел / Eddie the Eagle (2016) WEB-DLRip от Scarabey | iTunes
  • Эдди Орел / Eddie the Eagle (2016) WEB-DLRip от Scarabey | iTunes
  • Эдди Орел / Eddie the Eagle (2016) WEB-DLRip-AVC от Scarabey | iTunes
  • Эдди «Орел» / Eddie the Eagle (2016)
  • Эдди Орел / Eddie the Eagle (2016) WEB-DL 720p | iTunes
  • Эдди Орел / Eddie the Eagle (2016) BDRip 720p | iTunes
  • Эдди Орел / Eddie the Eagle (2016) HDRip от MegaPeer | iTunes


    • Комментарии (0):

      Информация

      Информация

        Посетители, находящиеся в группе Гости, не могут оставлять комментарии в данной новости.

        ↓ Меню



        ↓ Опрос

        А Вы добавили сайт в закладки?
        Да
        Не


        Top 10 за месяц (Фильмы)