.
Авторизация | Регистрация
Хочешь лучшие торренты? Добавь свой email!
Добавить
» » Венди Ву: Королева в бою / Wendy Wu: Homecoming Warrior (2006) WEB-DL 720p | D, P2 скачать торрент бесплатно




    Венди Ву: Королева в бою / Wendy Wu: Homecoming Warrior (2006) WEB-DL 720p | D, P2 скачать торрент бесплатно

    Опубликовал: Админ | Дата: 10-06-2016, 05:00 | Просмотров: 90


    Венди Ву: Королева в бою (Пуленепробиваемая)/Wendy Wu: Homecoming Warrior

    Детально о кино
    Русское название: Венди Ву: Королева в бою (Пуленепробиваемая)
    Русское название в мировом прокате: Wendy Wu: Homecoming Warrior
    Создали в: 2006
    Категория жанра: Боевик, приключения, семейный
    Главный режиссер: Джон Лэйн

    Актеры
    Бренда Сонг, Шин Коямада, Сьюзэн Чуэнг, Джастин Чон, Майкл Чэн, Эллен Воглом, Цай Чинь, Джеймс Гэйлин, Майкл Сассенте, Сэлли Стокуэлл, Тимоти Рэби, Анна Хатчинсон, Сэлли Мартин, Джофф Долан

    Сюжет фильма

    Вэнди By мечтает стать королевой выпускного бала, но вскоре узнает, что должна спасти мир, ибо в прошлой жизни она была великим китайским воином, ее наставником становится монах Чен, выполняющий тайное поручение ордена буддистов, он должен подготовить By к схватке с силами зла, дабы уберечь мир от катастрофы на следующие 90 лет…
    Снималось в: США
    Киностудия: Disney Channel, Rubicon Films, Regan - Jon Productions
    Время просмотра: 01: 30: 35
    Перевод текста: Профессиональный (полное дублирование) Нева фильм, профессиональный (двухголосый)
    Файл
    Тип видео: МКV
    Кодек для видео: H.264 (AVC)
    Качество фильма: WEB-DL 720p
    Информация о видео: 1280x720, 23.976 Fps, MPEG-4 AVC, 4099 kbps avg, 0.185 bit/pixel
    Информация о звуке #1: 48 kHz, AC3 Dolby Digital, 2/0 (L, R) ch, ~128.00 kbps avg - Дублированный
    Информация о звуке #2: 48 kHz, AC3 Dolby Digital, 2/0 (L, R) ch, ~160.00 kbps avg - Двухголосый
    Информация о звуке #3: 48 kHz, AC3 Dolby Digital, 3/2 (L, C, R, l, r) + LFE ch, ~384.00 kbps avg - Английский
    Субтитры: Нет
    MI

    Общее
    Уникальный идентификатор : 206274992264670088229395545640076926828 (0x9B2F1E51F534D9528DFC5D69DAB15F6C)
    Полное имя : D: DownloadsВременные файлыВенди Ву - Королева в бою (Wendy Wu - Homecoming Warrior).2006.WEB-DL.720p.mkv
    Формат : Matroska
    Версия формата : Version 4/Version 2
    Размер файла : 3, 02 Гбайт
    Продолжительность : 1 ч. 30 м.
    Общий поток : 4773 Кбит/сек
    Дата кодирования : UTC 2016-06-08 19: 52: 31
    Программа кодирования : mkvmerge v9.0.1 (;Obstacles;) 64bit
    Библиотека кодирования : libebml v1.3.3 + libmatroska v1.4.4
    Видео
    Идентификатор : 1
    Формат : AVC
    Формат/Информация : Advanced Video Codec
    Профиль формата : High@L3.1
    Параметр CABAC формата : Нет
    Параметр ReFrames формата : 2 кадра
    Идентификатор кодека : V_MPEG4/ISO/AVC
    Продолжительность : 1 ч. 30 м.
    Битрейт : 4099 Кбит/сек
    Ширина : 1280 пикселей
    Высота : 720 пикселей
    Соотношение сторон : 16: 9
    Режим частоты кадров : Постоянный
    Частота кадров : 23, 976 (23976/1000) кадра/сек
    Цветовое пространство : YUV
    Субдискретизация насыщенности : 4: 2: 0
    Битовая глубина : 8 бит
    Тип развёртки : Прогрессивная
    Бит/(Пиксели*Кадры) : 0.185
    Размер потока : 2, 59 Гбайт (86%)
    Язык : English
    Default : Да
    Forced : Нет
    Цветовой диапазон : Limited
    Основные цвета : BT.709
    Характеристики трансфера : BT.709
    Коэффициенты матрицы : BT.709
    Аудио #1
    Идентификатор : 2
    Формат : AC-3
    Формат/Информация : Audio Coding 3
    Расширение режима : CM (complete main)
    Параметр Endianness формата : Big
    Идентификатор кодека : A_AC3
    Продолжительность : 1 ч. 30 м.
    Вид битрейта : Постоянный
    Битрейт : 128 Кбит/сек
    Каналы : 2 канала
    Расположение каналов : Front: L R
    Частота : 48, 0 КГц
    Частота кадров : 31, 250 кадров/сек (1536 spf)
    Метод сжатия : С потерями
    Размер потока : 82, 9 Мбайт (3%)
    Заголовок : DUB, (Дублированный), 2 ch, 128 Kbps
    Язык : Russian
    Default : Да
    Forced : Нет
    Аудио #2
    Идентификатор : 3
    Формат : AC-3
    Формат/Информация : Audio Coding 3
    Расширение режима : CM (complete main)
    Параметр Endianness формата : Big
    Идентификатор кодека : A_AC3
    Продолжительность : 1 ч. 30 м.
    Вид битрейта : Постоянный
    Битрейт : 160 Кбит/сек
    Каналы : 2 канала
    Расположение каналов : Front: L R
    Частота : 48, 0 КГц
    Частота кадров : 31, 250 кадров/сек (1536 spf)
    Метод сжатия : С потерями
    Размер потока : 104 Мбайт (3%)
    Заголовок : DVO, 2GOL, (Двухголосый), 2 ch, 160 Kbps
    Язык : Russian
    Default : Нет
    Forced : Нет
    Аудио #3
    Идентификатор : 4
    Формат : AC-3
    Формат/Информация : Audio Coding 3
    Расширение режима : CM (complete main)
    Параметр Endianness формата : Big
    Идентификатор кодека : A_AC3
    Продолжительность : 1 ч. 30 м.
    Вид битрейта : Постоянный
    Битрейт : 384 Кбит/сек
    Каналы : 6 каналов
    Расположение каналов : Front: L C R, Side: L R, LFE
    Частота : 48, 0 КГц
    Частота кадров : 31, 250 кадров/сек (1536 spf)
    Метод сжатия : С потерями
    Размер потока : 249 Мбайт (8%)
    Заголовок : 5.1 ch, 384 Kbps
    Язык : English
    Default : Нет
    Forced : Нет
    Скриншоты





    Релиз подготовил: CergMark, CerGold
    Залил: CergMark

    Онлайн видео Венди Ву: Королева в бою


    Размер скачиваемого торрента: 3.02 GB (3243051046 Bytes)

    Венди Ву: Королева в бою/Wendy Wu: Homecoming Warrior (2006) WEB-DL 720p | D, P2
    загрузка...
    Рейтинг →
     (голосов: 1, оценка 4/5, голосовать можно 1 раз )

    Другие торренты по теме:

  • Венди Ву: Королева в бою / Wendy Wu: Homecoming Warrior (2006) WEBRip 1080p | D, P2


    • Комментарии (0):

      Информация

      Информация

        Посетители, находящиеся в группе Гости, не могут оставлять комментарии в данной новости.

        ↓ Меню



        ↓ Опрос

        А Вы добавили сайт в закладки?
        Да
        Не


        Top 10 за месяц (Фильмы)