.
Авторизация | Регистрация
Хочешь лучшие торренты? Добавь свой email!
Добавить
» » Колония Дигнидад / Colonia (2015) BDRemux 1080p от ExKinoRay | iTunes скачать торрент бесплатно




    Колония Дигнидад / Colonia (2015) BDRemux 1080p от ExKinoRay | iTunes скачать торрент бесплатно

    Опубликовал: Админ | Дата: 9-06-2016, 12:09 | Просмотров: 81



    Детально о кино
    Русское название: Колония Дигнидад
    Русское название в мировом прокате: Colonia
    Создали в: 201
    Категория жанра: Триллер, драма, мелодрама, история
    Главный режиссер: Флориан Галленбергер

    Актеры
    Эмма Уотсон, Даниэль Брюль, Микаэл Нюквист, Риченда Кэри, Вики Крипс, Джинн Вернер, Джулиан Овенден, Август Цирнер, Мартин Вуттке, Николас Барсофф

    Сюжет фильма

    Немецкий журналист Даниэль похищен в Чили тайной полицией и после немыслимых пыток отправлен в колонию Дигнидад — огромное поселение, выдающее себя за благотворительную коммуну, а на самом деле гнездо нацистов — беглецов из Третьего рейха. Колонию возглавляет бывший офицер вермахта, бесноватый проповедник Пауль Шефер, внушающий пастве пользу умерщвления плоти и бесплатного труда от заката до рассвета. В Дигнидад легко попасть, но обратной дороги нет. Здесь Даниэлю предстоит превратиться в раба и материал для бесчеловечных экспериментов.

    Снималось в: Германия, Люксембург, Франция
    Киностудия: Fred Films, Iris Productions, Majestic Filmproduktion, Rat Pack Filmproduktion GmbH
    Время просмотра: 01: 49: 32
    Перевод текста: Дублированный | iTunes
    Файл
    Кодек для видео: MPEG-4
    Качество фильма: BDRemux 1080p
    Информация о видео: 1920x1080, 21.9 Mbit/s, 23.976 fps
    Информация о звуке:
    Информация о звуке #01: 48 kHz, AC3, 5.1, 384 Kbps | Дублированный, iTunes | AC3
    Информация о звуке #02: 48 kHz, DTS-HD MA, 5.1, 3412 kbps | Оригинал | DTS-HD MA
    Субтитры: Английские
    Релиз подготовил: Автор релиза:

    MI
    General
    Unique ID : 232976891883690123726604393195530282236 (0xAF45B79D3B2B4C5581C9D17452B6E4FC)
    Complete name : F: VideoColonia.2015.BDREMUX.1080p.ExKinoRay.mkv
    Format : Matroska
    Format version : Version 4/Version 2
    File size : 19.8 GiB
    Duration : 1h 49mn
    Overall bit rate mode : Variable
    Overall bit rate : 25.7 Mbps
    Movie name : Colonia.2015.BDREMUX.1080p.ExKinoRay
    Encoded date : UTC 2016-06-08 07: 38: 02
    Writing application : mkvmerge v8.3.0 (;Over the Horizon;) 64bit
    Writing library : libebml v1.3.1 + libmatroska v1.4.2
    Video
    ID : 1
    Format : AVC
    Format/Info : Advanced Video Codec
    Format profile : High@L4.1
    Format settings, CABAC : Yes
    Format settings, ReFrames : 4 frames
    Codec ID : V_MPEG4/ISO/AVC
    Duration : 1h 49mn
    Bit rate mode : Variable
    Bit rate : 21.9 Mbps
    Maximum bit rate : 38.0 Mbps
    Width : 1 920 pixels
    Height : 1 080 pixels
    Display aspect ratio : 16: 9
    Frame rate mode : Constant
    Frame rate : 23.976 (24000/1001) fps
    Color space : YUV
    Chroma subsampling : 4: 2: 0
    Bit depth : 8 bits
    Scan type : Progressive
    Bits/(Pixel*Frame) : 0.441
    Stream size : 16.8 GiB (85%)
    Title : Colonia.2015.BDREMUX.1080p.ExKinoRay
    Language : English
    Default : Yes
    Forced : No
    Audio #1
    ID : 2
    Format : AC-3
    Format/Info : Audio Coding 3
    Mode extension : CM (complete main)
    Format settings, Endianness : Big
    Codec ID : A_AC3
    Duration : 1h 49mn
    Bit rate mode : Constant
    Bit rate : 384 Kbps
    Channel(s) : 6 channels
    Channel positions : Front: L C R, Side: L R, LFE
    Sampling rate : 48.0 KHz
    Frame rate : 31.250 fps (1536 spf)
    Compression mode : Lossy
    Stream size : 302 MiB (1%)
    Title : DUB iTunes
    Language : Russian
    Default : Yes
    Forced : No
    Audio #2
    ID : 3
    Format : DTS
    Format/Info : Digital Theater Systems
    Format profile : MA/Core
    Mode : 16
    Format settings, Endianness : Big
    Codec ID : A_DTS
    Duration : 1h 49mn
    Bit rate mode : Variable/Constant
    Bit rate : 3 412 Kbps/1 509 Kbps
    Channel(s) : 6 channels
    Channel positions : Front: L C R, Side: L R, LFE
    Sampling rate : 48.0 KHz
    Frame rate : 93.750 fps (512 spf)
    Bit depth : 24 bits
    Compression mode : Lossless/Lossy
    Stream size : 2.62 GiB (13%)
    Title : Original
    Language : English
    Default : No
    Forced : No
    Text #1
    ID : 4
    Format : UTF-8
    Codec ID : S_TEXT/UTF8
    Codec ID/Info : UTF-8 Plain Text
    Duration : 1h 42mn
    Bit rate : 33 bps
    Count of elements : 1094
    Stream size : 25.4 KiB (0%)
    Language : English
    Default : No
    Forced : No
    Text #2
    ID : 5
    Format : UTF-8
    Codec ID : S_TEXT/UTF8
    Codec ID/Info : UTF-8 Plain Text
    Duration : 1h 43mn
    Bit rate : 40 bps
    Count of elements : 1019
    Stream size : 30.5 KiB (0%)
    Title : SDH
    Language : English
    Default : No
    Forced : No
    Скриншоты


    Онлайн видео Колония Дигнидад


    Размер скачиваемого торрента: 19.75 GB (21208209022 Bytes)

    Колония Дигнидад/Colonia (2015) BDRemux 1080p от ExKinoRay | iTunes
    загрузка...
    Рейтинг →
     (голосов: 1, оценка 3/5, голосовать можно 1 раз )

    Другие торренты по теме:

  • Колония Дигнидад / Colonia (2015)
  • Колония Дигнидад / Colonia (2015) WEB-DL 720p | D | Line
  • Колония Дигнидад / Colonia (2015) WEB-DLRip-AVC | iTunes
  • Колония Дигнидад / Colonia (2015) BDRip 1080p | iTunes
  • Колония Дигнидад / Colonia (2015) HDRip от MegaPeer | iTunes
  • Колония Дигнидад / Colonia (2015) BDRip 720p | iTunes
  • Колония Дигнидад / Colonia (2015) HDRip от Scarabey | iTunes
  • Колония Дигнидад / Colonia (2015) BDRip 1080p от ExKinoRay | iTunes


    • Комментарии (0):

      Информация

      Информация

        Посетители, находящиеся в группе Гости, не могут оставлять комментарии в данной новости.

        ↓ Меню



        ↓ Опрос

        А Вы добавили сайт в закладки?
        Да
        Не


        Top 10 за месяц (Фильмы)