.
Авторизация | Регистрация
Хочешь лучшие торренты? Добавь свой email!
Добавить
» » Охота на работу / Get a Job (2016) BDRemux 1080p от ExKinoRay | L скачать торрент бесплатно




    Охота на работу / Get a Job (2016) BDRemux 1080p от ExKinoRay | L скачать торрент бесплатно

    Опубликовал: Админ | Дата: 8-06-2016, 11:53 | Просмотров: 95



    Детально о кино
    Русское название: Охота на работу
    Русское название в мировом прокате: Get a Job
    Создали в: 2016
    Категория жанра: Комедия
    Главный режиссер: Дилан Кидд

    Актеры
    Элисон Бри, Анна Кендрик, Брайан Крэнстон, Майлз Теллер, Николас Браун, Марша Гей Харден, Кристофер Минц-Плассе, Джон К. МакГинли, Хорхе Гарсиа, Рави Патель

    Сюжет фильма

    Сюжет ленты строится вокруг выпускника колледжа и его друзей. Молодые специалисты стоят на распутье, чем заниматься, зачем и тому ли они учились. В стране Экономический кризис, а молодежь хочет отрываться.

    Снималось в: США
    Киностудия: CBS Films, Double Feature Films
    Время просмотра: 01: 22: 44
    Перевод текста: Любительский многоголосый (закадровый) | Paradox Omskbird records
    Файл
    Кодек для видео: MPEG-4
    Качество фильма: BDRemux 1080p
    Информация о видео: 1920x1080, 23.0 Mbit/s, 23.976 fps
    Информация о звуке:
    Информация о звуке #01: 48 kHz, DTS, 5.1, 1510 Kbps | Любительский многоголосый (закадровый), Paradox Omskbird records | DTS
    Информация о звуке #02: 48 kHz, AC3, 5.1, 448 Kbps | Любительский многоголосый (закадровый), Paradox Omskbird records | AC3
    Информация о звуке #03: 48 kHz, DTS-HD MA, 5.1, 2700 kbps | Оригинал | DTS-HD MA
    Субтитры: Русские, английские
    Релиз подготовил: Автор релиза:

    MI
    General
    Unique ID : 234658625823715568202845999579089280904 (0xB0899B7FC370C3158FFE2DA352A71F88)
    Complete name : F: VideoGet.A.Job.2016.BDREMUX.1080p.ExKinoRay.mkv
    Format : Matroska
    Format version : Version 4/Version 2
    File size : 16.0 GiB
    Duration : 1h 22mn
    Overall bit rate mode : Variable
    Overall bit rate : 27.6 Mbps
    Movie name : Get.A.Job.2016.BDREMUX.1080p.ExKinoRay
    Encoded date : UTC 2016-06-07 00: 56: 55
    Writing application : mkvmerge v8.3.0 (;Over the Horizon;) 64bit
    Writing library : libebml v1.3.1 + libmatroska v1.4.2
    Video
    ID : 1
    Format : AVC
    Format/Info : Advanced Video Codec
    Format profile : High@L4.1
    Format settings, CABAC : Yes
    Format settings, ReFrames : 4 frames
    Codec ID : V_MPEG4/ISO/AVC
    Duration : 1h 22mn
    Bit rate mode : Variable
    Bit rate : 23.0 Mbps
    Maximum bit rate : 35.0 Mbps
    Width : 1 920 pixels
    Height : 1 080 pixels
    Display aspect ratio : 16: 9
    Frame rate mode : Constant
    Frame rate : 23.976 (24000/1001) fps
    Standard : NTSC
    Color space : YUV
    Chroma subsampling : 4: 2: 0
    Bit depth : 8 bits
    Scan type : Progressive
    Bits/(Pixel*Frame) : 0.462
    Stream size : 13.3 GiB (83%)
    Title : Get.A.Job.2016.BDREMUX.1080p.ExKinoRay.***селезень***
    Language : English
    Default : No
    Forced : No
    Color range : Limited
    Color primaries : BT.709
    Transfer characteristics : BT.709
    Matrix coefficients : BT.709
    Audio #1
    ID : 2
    Format : DTS
    Format/Info : Digital Theater Systems
    Mode : 16
    Format settings, Endianness : Big
    Codec ID : A_DTS
    Duration : 1h 22mn
    Bit rate mode : Constant
    Bit rate : 1 509 Kbps
    Channel(s) : 6 channels
    Channel positions : Front: L C R, Side: L R, LFE
    Sampling rate : 48.0 KHz
    Frame rate : 93.750 fps (512 spf)
    Bit depth : 24 bits
    Compression mode : Lossy
    Stream size : 893 MiB (5%)
    Title : MVO-DTS
    Language : Russian
    Default : Yes
    Forced : No
    Audio #2
    ID : 3
    Format : AC-3
    Format/Info : Audio Coding 3
    Mode extension : CM (complete main)
    Format settings, Endianness : Big
    Codec ID : A_AC3
    Duration : 1h 22mn
    Bit rate mode : Constant
    Bit rate : 448 Kbps
    Channel(s) : 6 channels
    Channel positions : Front: L C R, Side: L R, LFE
    Sampling rate : 48.0 KHz
    Frame rate : 31.250 fps (1536 spf)
    Compression mode : Lossy
    Stream size : 265 MiB (2%)
    Title : MVO-AC3
    Language : Russian
    Default : No
    Forced : No
    Audio #3
    ID : 4
    Format : DTS
    Format/Info : Digital Theater Systems
    Format profile : MA/Core
    Mode : 16
    Format settings, Endianness : Big
    Codec ID : A_DTS
    Duration : 1h 22mn
    Bit rate mode : Variable/Constant
    Bit rate : 2 700 Kbps/1 509 Kbps
    Channel(s) : 6 channels
    Channel positions : Front: L C R, Side: L R, LFE
    Sampling rate : 48.0 KHz
    Frame rate : 93.750 fps (512 spf)
    Bit depth : 24 bits
    Compression mode : Lossless/Lossy
    Stream size : 1.56 GiB (10%)
    Title : Original
    Language : English
    Default : No
    Forced : No
    Text #1
    ID : 5
    Format : UTF-8
    Codec ID : S_TEXT/UTF8
    Codec ID/Info : UTF-8 Plain Text
    Duration : 1h 17mn
    Bit rate : 120 bps
    Count of elements : 1281
    Stream size : 68.5 KiB (0%)
    Language : Russian
    Default : No
    Forced : No
    Text #2
    ID : 6
    Format : UTF-8
    Codec ID : S_TEXT/UTF8
    Codec ID/Info : UTF-8 Plain Text
    Duration : 1h 17mn
    Bit rate : 73 bps
    Count of elements : 1207
    Stream size : 42.1 KiB (0%)
    Title : srt
    Language : English
    Default : No
    Forced : No
    Text #3
    ID : 7
    Format : UTF-8
    Codec ID : S_TEXT/UTF8
    Codec ID/Info : UTF-8 Plain Text
    Duration : 1h 17mn
    Bit rate : 80 bps
    Count of elements : 1340
    Stream size : 46.0 KiB (0%)
    Title : SDH
    Language : English
    Default : No
    Forced : No
    Text #4
    ID : 8
    Format : UTF-8
    Codec ID : S_TEXT/UTF8
    Codec ID/Info : UTF-8 Plain Text
    Duration : 1h 22mn
    Bit rate : 76 bps
    Count of elements : 1340
    Stream size : 46.2 KiB (0%)
    Title : Colored
    Language : English
    Default : No
    Forced : No
    Menu
    00: 00: 00.000 : en: Chapter 01
    00: 06: 13.289 : en: Chapter 02
    00: 12: 55.858 : en: Chapter 03
    00: 18: 29.149 : en: Chapter 04
    00: 24: 29.134 : en: Chapter 05
    00: 29: 27.974 : en: Chapter 06
    00: 36: 06.664 : en: Chapter 07
    00: 44: 14.652 : en: Chapter 08
    00: 52: 37.737 : en: Chapter 09
    01: 01: 23.137 : en: Chapter 10
    01: 07: 12.278 : en: Chapter 11
    01: 16: 53.275 : en: Chapter 12
    Скриншоты


    Онлайн видео Охота на работу


    Размер скачиваемого торрента: 15.98 GB (17156198343 Bytes)

    Охота на работу/Get a Job (2016) BDRemux 1080p от ExKinoRay | L
    загрузка...
    Рейтинг →
     (голосов: 1, оценка 3/5, голосовать можно 1 раз )

    Другие торренты по теме:

  • Охота на работу / Get a Job (2016)
  • Охота на работу / Get a Job (2016) BDRip 720p от AleksSin | L
  • Охота на работу / Get a Job (2016) HDRip от MegaPeer | L
  • Охота на работу / Get a Job (2016) WEB-DLRip 720р | ViruseProject


    • Комментарии (0):

      Информация

      Информация

        Посетители, находящиеся в группе Гости, не могут оставлять комментарии в данной новости.

        ↓ Меню



        ↓ Опрос

        А Вы добавили сайт в закладки?
        Да
        Не


        Top 10 за месяц (Фильмы)