.
Авторизация | Регистрация
Хочешь лучшие торренты? Добавь свой email!
Добавить
» » Кровавый апельсин / Blood Orange (2016) WEB-DL 1080p | L1 скачать торрент бесплатно




    Кровавый апельсин / Blood Orange (2016) WEB-DL 1080p | L1 скачать торрент бесплатно

    Опубликовал: Админ | Дата: 6-06-2016, 14:11 | Просмотров: 113



    Детально о кино
    Русское название: Кровавый апельсин
    Русское название в мировом прокате: Blood Orange
    Создали в: 2016
    Категория жанра: триллер
    Главный режиссер: Тоби Тобиаш

    Актеры
    Бен Лэмб, Кейси Барнфилд, Антонио Магро, Игги Поп

    Сюжет фильма
    Триллер Кровавый апельсин с Игги Попом в главной роли. Певец сыграет стареющую рок-звезду, который проживает на уединённой вилле в Испании, со своей молодой женой Изабелль. Однажды их уют нарушает появление мужчины по имени Лукас. Он был некогда возлюбленным Изабелль и теперь утверждает, что она украла у него наследство и требует вернуть.


    Снималось в: Великобритания, Испания/Lightworks Film, Trigger Films
    Время просмотра: 01: 23: 31
    Тип перевода: Любительское (одноголосое) Хихикающий доктор
    Файл
    Тип видео: MKV
    Качество фильма: WEB-DL 1080p
    Информация о видео: MPEG-4 AVC, 4416 kb/s, 1920x816
    Информация о звуке: Russian: AC3, 192 kb/s (2 ch)/English: AC3, 384 kb/s (6 ch)
    MI

    Format : Matroska
    Format version : Version 2
    File size : 2.97 GiB
    Duration : 1h 23mn
    Overall bit rate : 5 093 Kbps
    Encoded date : UTC 2016-06-05 03: 41: 47
    Writing application : mkvmerge v7.8.0 (;River Man;) 32bit built on Apr 3 2015 12: 11: 22
    Writing library : libebml v1.3.1 + libmatroska v1.4.2
    Video
    ID : 1
    Format : AVC
    Format/Info : Advanced Video Codec
    Format profile : High@L4
    Format settings, CABAC : Yes
    Format settings, ReFrames : 5 frames
    Codec ID : V_MPEG4/ISO/AVC
    Duration : 1h 23mn
    Bit rate : 4 416 Kbps
    Width : 1 920 pixels
    Height : 816 pixels
    Display aspect ratio : 2.35: 1
    Frame rate mode : Constant
    Frame rate : 24.000 fps
    Color space : YUV
    Chroma subsampling : 4: 2: 0
    Bit depth : 8 bits
    Scan type : Progressive
    Bits/(Pixel*Frame) : 0.117
    Stream size : 2.58 GiB (87%)
    Language : English
    Default : Yes
    Forced : No
    Color range : Limited
    Color primaries : BT.709
    Transfer characteristics : BT.709
    Matrix coefficients : BT.709
    Audio #1
    ID : 2
    Format : AC-3
    Format/Info : Audio Coding 3
    Mode extension : CM (complete main)
    Format settings, Endianness : Big
    Codec ID : A_AC3
    Duration : 1h 23mn
    Bit rate mode : Constant
    Bit rate : 192 Kbps
    Channel(s) : 2 channels
    Channel positions : Front: L R
    Sampling rate : 48.0 KHz
    Bit depth : 16 bits
    Compression mode : Lossy
    Stream size : 115 MiB (4%)
    Language : Russian
    Default : Yes
    Forced : No
    Audio #2
    ID : 3
    Format : AC-3
    Format/Info : Audio Coding 3
    Mode extension : CM (complete main)
    Format settings, Endianness : Big
    Codec ID : A_AC3
    Duration : 1h 23mn
    Bit rate mode : Constant
    Bit rate : 384 Kbps
    Channel(s) : 6 channels
    Channel positions : Front: L C R, Side: L R, LFE
    Sampling rate : 48.0 KHz
    Bit depth : 16 bits
    Compression mode : Lossy
    Stream size : 229 MiB (8%)
    Language : English
    Default : No
    Forced : No
    Скриншоты






    Онлайн видео Кровавый апельсин


    Размер скачиваемого торрента: 2.97 GB (3190163707 Bytes)

    Кровавый апельсин/Blood Orange (2016) WEB-DL 1080p | L1
    загрузка...
    Рейтинг →
     (голосов: 1, оценка 3/5, голосовать можно 1 раз )

    Другие торренты по теме:

  • Кровавый апельсин / Blood Orange (2016) WEB-DL 1080p | L
  • Кровавый апельсин / Blood Orange (2016) WEB-DL 720p | L


    • Комментарии (0):

      Информация

      Информация

        Посетители, находящиеся в группе Гости, не могут оставлять комментарии в данной новости.

        ↓ Меню



        ↓ Опрос

        А Вы добавили сайт в закладки?
        Да
        Не


        Top 10 за месяц (Фильмы)