.
Авторизация | Регистрация
Хочешь лучшие торренты? Добавь свой email!
Добавить
» » Васёк Трубачёв и его товарищи (1955) DVDRip от New-Team скачать торрент бесплатно




    Васёк Трубачёв и его товарищи (1955) DVDRip от New-Team скачать торрент бесплатно

    Опубликовал: Админ | Дата: 4-06-2016, 15:47 | Просмотров: 125



    Снималось в: СССР
    Создали в: Киностудия им. Горького
    Категория жанра: приключения, семейный
    Создали в: 1955
    Время просмотра: 01: 16: 46
    Перевод текста: Не требуется
    Субтитры подготовлены: нет
    Оригинальная аудиодорожка: русский
    Главный режиссер: Илья Фрэз

    Актеры

    Олег Вишнев, Саша Чудаков, Вова Семенович, Слава Девкин, Жора Александров, Наталья Рычагова, Валерий Сафарбеков, Юра Башкиров, Борис Канарейкин, Оля Троицкая, Юрий Боголюбов, Леонид Харитонов, Иван Пельтцер, Анастасия Зуева, Юрий Медведев, Пётр Алейников, Иветта Киселёва, Нина Никитина...
    Полный список актёров
    Описание:
    Фильм повествует о жизни и приключениях советских школьников в предвоенные годы. О том, как вчерашние друзья - одноклассники едва не становятся врагами. Фильм первый, снятый по одноименному роману - трилогии Валентины Осеевой.



    Источник: DVD5 R5
    Качество фильма видео: DVDRip
    Тип видео видео: AVI
    Информация о видео: 640x480 (4: 3), 25 fps, XviD ~ 1217 kbps avg, 0.158 bit/pixel
    Информация о звуке: 48 kHz, MP3 2.0, 128 kbps
    Раздача от:
    MediaInfo

    Общее
    Полное имя : Vasek.Trubachev.i.ego.tovarishhi.1955.DVDRip-745_New-team_by_AVP_Studio.avi
    Формат : AVI
    Формат/Информация : Audio Video Interleave
    Размер файла : 744 Мбайт
    Продолжительность : 1 ч. 16 м.
    Общий поток : 1355 Кбит/сек
    Программа кодирования : VirtualDubMod 1.5.10.3 | www.virtualdub-fr.org || (build 2550/release)
    Библиотека кодирования : VirtualDubMod build 2550/release
    Видео
    Идентификатор : 0
    Формат : MPEG-4 Visual
    Профиль формата : Advanced Simple@L5
    Параметр BVOP формата : 1
    Параметр QPel формата : Нет
    Параметр GMC формата : Без точки перехода
    Параметр матрицы формата : Выборочная
    Идентификатор кодека : XVID
    Идентификатор кодека/Подсказка : XviD
    Продолжительность : 1 ч. 16 м.
    Битрейт : 1217 Кбит/сек
    Ширина : 640 пикселей
    Высота : 480 пикселей
    Соотношение сторон : 4: 3
    Частота кадров : 25, 000 кадров/сек
    Цветовое пространство : YUV
    Субдискретизация насыщенности : 4: 2: 0
    Битовая глубина : 8 бит
    Тип развёртки : Прогрессивная
    Метод сжатия : С потерями
    Бит/(Пиксели*Кадры) : 0.158
    Размер потока : 668 Мбайт (90%)
    Библиотека кодирования : XviD 1.2.1 (UTC 2008-12-04)
    Аудио
    Идентификатор : 1
    Формат : MPEG Audio
    Версия формата : Version 1
    Профиль формата : Layer 3
    Идентификатор кодека : 55
    Идентификатор кодека/Подсказка : MP3
    Продолжительность : 1 ч. 16 м.
    Вид битрейта : Постоянный
    Битрейт : 128 Кбит/сек
    Каналы : 2 канала
    Частота : 48, 0 КГц
    Метод сжатия : С потерями
    Размер потока : 70, 3 Мбайт (9%)
    Выравнивание : Соединение по промежуткам
    Продолжительность промежутка : 40 мс. (1, 00 видеокадр)
    Время предзагрузки промежутка : 504 мс.
    Библиотека кодирования : LAME3.99r
    Залил: AVPStudio

    Онлайн видео Васёк Трубачёв и его товарищи (1955) DVDRip от New


    Размер скачиваемого торрента: 743.79 MB (779919360 Bytes)


    Васёк Трубачёв и его товарищи (1955) DVDRip от New-Team
    загрузка...
    Рейтинг →
     (голосов: 1, оценка 5/5, голосовать можно 1 раз )

    Другие торренты по теме:



      Комментарии (0):

      Информация

      Информация

        Посетители, находящиеся в группе Гости, не могут оставлять комментарии в данной новости.

        ↓ Меню



        ↓ Опрос

        А Вы добавили сайт в закладки?
        Да
        Не


        Top 10 за месяц (Фильмы)