.
Авторизация | Регистрация
Хочешь лучшие торренты? Добавь свой email!
Добавить
» » 13 часов: Тайные солдаты Бенгази / 13 Hours: The Secret Soldiers of Benghazi (2016) BDRip 720p от ExKinoRay | Line скачать торрент бесплатно




    13 часов: Тайные солдаты Бенгази / 13 Hours: The Secret Soldiers of Benghazi (2016) BDRip 720p от ExKinoRay | Line скачать торрент бесплатно

    Опубликовал: Админ | Дата: 2-06-2016, 05:00 | Просмотров: 72



    Детально о кино
    Русское название: 13 часов: Тайные солдаты Бенгази
    Русское название в мировом прокате: 13 Hours: The Secret Soldiers of Benghazi
    Создали в: 2016
    Категория жанра: Боевик, триллер, драма, военный
    Главный режиссер: Майкл Бэй

    Актеры
    Джон Красински, Джеймс Бэдж Дэйл, Пабло Шрайбер, Дэвид Денман, Доминик Фумуса, Макс Мартини, Алексия Бальер, Дэвид Костабайл, Пейман Моаади, Мэтт Летчер

    Сюжет фильма

    2012 год. Бенгази, Ливия. Группа террористов решает отпраздновать события 11 сентября нападением на американское посольство. Шестерке бойцов из элитного спецотряда приказано вмешаться только в крайнем случае. Но когда под угрозой десятки жизней, долг и совесть берут верх над субординацией. И мужественные солдаты без колебаний вступают в бой с яростной группировкой боевиков. Бой, который для всех шестерых, скорее всего, станет последним.

    Снималось в: США
    Киностудия: 3 Arts Entertainment, Dune Films, Latina Pictures
    Время просмотра: 02: 24: 49
    Перевод текста: Дублированный | Чистый звук
    Файл
    Кодек для видео: MPEG-4
    Качество фильма: BDRip 720p
    Информация о видео: 1280x534, 8127 Kbit/s, 23.976 fps
    Информация о звуке:
    Информация о звуке #01: 48 kHz, AC3, 2.0, 384 Kbps | Дублированный, Чистый звук | AC3
    Информация о звуке #02: 48 kHz, AC3, 5.1, 640 kbps | Оригинал | AC3
    Субтитры: Русские (forced), английские (srt.SDH)
    Релиз подготовил: Автор релиза:

    MI
    General
    Unique ID : 235808124914229789104323950185848961935 (0xB166FE2E0D8D76A7BE1A7589C132FB8F)
    Complete name : F: Video13.Hours.The.Secret.Soldiers.of.Benghazi.2016.BDRip.720p.ExKinoRay.mkv
    Format : Matroska
    Format version : Version 4/Version 2
    File size : 9.24 GiB
    Duration : 2h 24mn
    Overall bit rate : 9 154 Kbps
    Movie name : 13.Hours: The.Secret.Soldiers.of.Benghazi.2016.BDRip.720p.ExKinoRay
    Encoded date : UTC 2016-06-01 09: 55: 46
    Writing application : mkvmerge v8.3.0 (;Over the Horizon;) 64bit
    Writing library : libebml v1.3.1 + libmatroska v1.4.2
    Video
    ID : 1
    Format : AVC
    Format/Info : Advanced Video Codec
    Format profile : High@L4.1
    Format settings, CABAC : Yes
    Format settings, ReFrames : 12 frames
    Codec ID : V_MPEG4/ISO/AVC
    Duration : 2h 24mn
    Bit rate : 8 127 Kbps
    Width : 1 280 pixels
    Height : 534 pixels
    Display aspect ratio : 2.40: 1
    Frame rate mode : Constant
    Frame rate : 23.976 (24000/1001) fps
    Color space : YUV
    Chroma subsampling : 4: 2: 0
    Bit depth : 8 bits
    Scan type : Progressive
    Bits/(Pixel*Frame) : 0.496
    Stream size : 8.20 GiB (89%)
    Title : 13.Hours: The.Secret.Soldiers.of.Benghazi.2016.BDRip.720p.ExKinoRay
    Writing library : x264 core 148 r2665+53 6629127 t_mod_Custom 8-bit@all X86_64
    Encoding settings : cabac=1/ref=12/deblock=1: -3: -3/analyse=0x3: 0x133/me=umh/subme=11/psy=1/fade_compensate=0.00/psy_rd=1.00: 0.00/mixed_ref=1/me_range=32/chroma_me=1/trellis=2/8x8dct=1/cqm=0/deadzone=21, 11/fast_pskip=0/chroma_qp_offset=-2/threads=16/lookahead_threads=2/sliced_threads=0/nr=0/decimate=0/interlaced=0/bluray_compat=0/constrained_intra=0/fgo=0/bframes=7/b_pyramid=2/b_adapt=2/b_bias=0/direct=3/weightb=1/open_gop=0/weightp=2/keyint=250/keyint_min=23/scenecut=40/intra_refresh=0/rc_lookahead=150/rc=crf/mbtree=0/crf=15.5000/qcomp=0.65/qpmin=0: 0: 0/qpmax=69: 69: 69/qpstep=4/vbv_maxrate=50000/vbv_bufsize=62500/crf_max=0.0/nal_hrd=none/filler=0/ip_ratio=1.30/pb_ratio=1.20/aq=1: 0.70/aq-sensitivity=10.00/aq-factor=1.00: 1.00: 1.00/aq2=0/aq3=0
    Language : English
    Default : Yes
    Forced : No
    Color range : Limited
    Matrix coefficients : BT.709
    Audio #1
    ID : 2
    Format : AC-3
    Format/Info : Audio Coding 3
    Mode extension : CM (complete main)
    Format settings, Endianness : Big
    Codec ID : A_AC3
    Duration : 2h 24mn
    Bit rate mode : Constant
    Bit rate : 384 Kbps
    Channel(s) : 2 channels
    Channel positions : Front: L R
    Sampling rate : 48.0 KHz
    Frame rate : 31.250 fps (1536 spf)
    Compression mode : Lossy
    Stream size : 397 MiB (4%)
    Title : DUB Line
    Language : Russian
    Default : Yes
    Forced : No
    Audio #2
    ID : 3
    Format : AC-3
    Format/Info : Audio Coding 3
    Mode extension : CM (complete main)
    Format settings, Endianness : Big
    Codec ID : A_AC3
    Duration : 2h 24mn
    Bit rate mode : Constant
    Bit rate : 640 Kbps
    Channel(s) : 6 channels
    Channel positions : Front: L C R, Side: L R, LFE
    Sampling rate : 48.0 KHz
    Frame rate : 31.250 fps (1536 spf)
    Compression mode : Lossy
    Stream size : 661 MiB (7%)
    Title : Original
    Language : English
    Default : No
    Forced : No
    Text #1
    ID : 4
    Format : UTF-8
    Codec ID : S_TEXT/UTF8
    Codec ID/Info : UTF-8 Plain Text
    Duration : 2h 16mn
    Bit rate : 4 bps
    Count of elements : 59
    Stream size : 4.24 KiB (0%)
    Title : forced
    Language : Russian
    Default : Yes
    Forced : No
    Text #2
    ID : 5
    Format : UTF-8
    Codec ID : S_TEXT/UTF8
    Codec ID/Info : UTF-8 Plain Text
    Duration : 2h 14mn
    Bit rate : 67 bps
    Count of elements : 2095
    Stream size : 66.5 KiB (0%)
    Language : English
    Default : No
    Forced : No
    Text #3
    ID : 6
    Format : UTF-8
    Codec ID : S_TEXT/UTF8
    Codec ID/Info : UTF-8 Plain Text
    Duration : 2h 15mn
    Bit rate : 71 bps
    Count of elements : 2274
    Stream size : 70.7 KiB (0%)
    Title : SDH
    Language : English
    Default : No
    Forced : No
    Menu
    00: 00: 00.000 : en: 00: 00: 00.000
    00: 04: 47.662 : en: 00: 04: 47.662
    00: 09: 01.541 : en: 00: 09: 01.541
    00: 15: 31.556 : en: 00: 15: 31.556
    00: 21: 12.229 : en: 00: 21: 12.229
    00: 26: 48.774 : en: 00: 26: 48.774
    00: 31: 22.756 : en: 00: 31: 22.756
    00: 34: 20.058 : en: 00: 34: 20.058
    00: 39: 36.124 : en: 00: 39: 36.124
    00: 47: 12.872 : en: 00: 47: 12.872
    00: 53: 59.027 : en: 00: 53: 59.027
    01: 02: 27.744 : en: 01: 02: 27.744
    01: 10: 03.324 : en: 01: 10: 03.324
    01: 23: 02.477 : en: 01: 23: 02.477
    01: 27: 11.101 : en: 01: 27: 11.101
    01: 34: 50.685 : en: 01: 34: 50.685
    01: 42: 36.359 : en: 01: 42: 36.359
    01: 48: 08.148 : en: 01: 48: 08.148
    01: 53: 47.279 : en: 01: 53: 47.279
    02: 00: 22.882 : en: 02: 00: 22.882
    02: 07: 19.465 : en: 02: 07: 19.465
    02: 18: 25.422 : en: 02: 18: 25.422
    Скриншоты


    Онлайн видео 13 часов: Тайные солдаты Бенгази


    Размер скачиваемого торрента: 9.24 GB (9920050466 Bytes)

    13 часов: Тайные солдаты Бенгази/13 Hours: The Secret Soldiers of Benghazi (2016) BDRip 720p от ExKinoRay | Line
    загрузка...
    Рейтинг →
     (голосов: 1, оценка 4/5, голосовать можно 1 раз )

    Другие торренты по теме:

  • 13 часов: Тайные солдаты Бенгази (2016)
  • 13 часов: Тайные солдаты Бенгази / 13 Hours: The Secret Soldiers of Benghazi (2016) WEB-DL 720p | D | Звук с CAMRip
  • 13 часов: Тайные солдаты Бенгази / 13 Hours: The Secret Soldiers of Benghazi (2016) WEB-DL 1080p | D | звук с CAMRip
  • 13 часов: Тайные солдаты Бенгази / 13 Hours: The Secret Soldiers of Benghazi (2016) WEB-DLRip | D | звук с CAMRip
  • 13 часов: Тайные солдаты Бенгази / 13 Hours: The Secret Soldiers of Benghazi (2016) HDRip | D | Line
  • 13 часов: Тайные солдаты Бенгази / 13 Hours: The Secret Soldiers of Benghazi (2016) BDRip 1080p | D | Line
  • 13 часов: Тайные солдаты Бенгази / 13 Hours: The Secret Soldiers of Benghazi (2016) BDRip от ExKinoRay | Line
  • 13 часов: Тайные солдаты Бенгази / 13 Hours: The Secret Soldiers of Benghazi (2016) BDRip от ExKinoRay | Лицензия


    • Комментарии (0):

      Информация

      Информация

        Посетители, находящиеся в группе Гости, не могут оставлять комментарии в данной новости.

        ↓ Меню



        ↓ Опрос

        А Вы добавили сайт в закладки?
        Да
        Не


        Top 10 за месяц (Фильмы)