.
Авторизация | Регистрация
Хочешь лучшие торренты? Добавь свой email!
Добавить
» » Пеле: Рождение легенды / Pel: Birth of a Legend (2016) WEB-DL 1080p от ExKinoRay | L скачать торрент бесплатно




    Пеле: Рождение легенды / Pel: Birth of a Legend (2016) WEB-DL 1080p от ExKinoRay | L скачать торрент бесплатно

    Опубликовал: Админ | Дата: 30-05-2016, 05:00 | Просмотров: 124



    Детально о кино
    Русское название: Пеле: Рождение легенды
    Русское название в мировом прокате: Pel?: Birth of a Legend
    Создали в: 2016
    Категория жанра: Драма, биография, спорт
    Главный режиссер: Джефф Цимбалист, Майкл Цимбалист

    Актеры
    Винсент Д`Онофрио, Родриго Санторо, Диего Бонета, Колм Мини, Сеу Жоржи, Андре Маттос, Свен Холмберг

    Сюжет фильма

    Биографическая драма расскажет о закулисье спорта, в частности о жизни величайшего игрока в истории футбола — Пеле. Зрители станут свидетелями непростой жизни бразильской легенды спорта. Сколько преград тому удалось преодолеть на своем пути, чтобы добиться мировой популярности? Это сейчас он демонстрирует невероятные профессиональные достижения и вдобавок ко всему не забывает о благородных делах, но раньше все было по-другому. С ранних лет Пеле жаждал получить признание, неустанно шел к своей мечте, преодолевая препятствия, тем самым закаляя свой характер. Картина охватывает детство футболиста, вплоть до победы на первом этапе Кубка мира в Швеции, когда Пеле было семнадцать лет. Судьба не всегда была благосклонна к спортсмену, однако за каждой успешной личности стоит огромный труд, железная воля и твердая уверенность в собственных силах.

    Снималось в: США
    Киностудия: Imagine Entertainment, Seine Pictures , Zohar International
    Время просмотра: 01: 47: 15
    Перевод текста: Любительский многоголосый (закадровый) | RecentFilms
    Файл
    Кодек для видео: MPEG-4
    Качество фильма: WEB-DL 1080p
    Информация о видео: 1916x794, 4448 Kbit/s, 23.976 fps
    Информация о звуке:
    Информация о звуке #01: 48 kHz, AC3, 2.0, 384 Kbps | Любительский многоголосый (закадровый), RecentFilms | AC3
    Информация о звуке #02: 48 kHz, AC3, 5.1, 384 kbps | Оригинал | AC3
    Субтитры: Английские
    Релиз подготовил: Автор релиза:

    MI
    General
    Unique ID : 217880954675985754812768269614304289008 (0xA3EA58722D885B2B8064C49021C560F0)
    Complete name : F: VideoPele.Birth.Of.A.Legend.2016.WEB-DL.1080p.ExKinoRay.mkv
    Format : Matroska
    Format version : Version 4/Version 2
    File size : 3.97 GiB
    Duration : 1h 46mn
    Overall bit rate : 5 314 Kbps
    Movie name : Pele.Birth.Of.A.Legend.2016.WEB-DL.1080p.ExKinoRay
    Encoded date : UTC 2016-05-29 13: 41: 40
    Writing application : mkvmerge v8.3.0 (;Over the Horizon;) 64bit
    Writing library : libebml v1.3.1 + libmatroska v1.4.2
    Video
    ID : 1
    Format : AVC
    Format/Info : Advanced Video Codec
    Format profile : High@L4
    Format settings, CABAC : Yes
    Format settings, ReFrames : 5 frames
    Codec ID : V_MPEG4/ISO/AVC
    Duration : 1h 46mn
    Bit rate : 4 544 Kbps
    Width : 1 916 pixels
    Height : 794 pixels
    Display aspect ratio : 2.40: 1
    Frame rate mode : Constant
    Frame rate : 23.976 fps
    Color space : YUV
    Chroma subsampling : 4: 2: 0
    Bit depth : 8 bits
    Scan type : Progressive
    Bits/(Pixel*Frame) : 0.125
    Stream size : 3.39 GiB (86%)
    Language : English
    Default : Yes
    Forced : No
    Color range : Limited
    Color primaries : BT.709
    Transfer characteristics : BT.709
    Matrix coefficients : BT.709
    Audio #1
    ID : 2
    Format : AC-3
    Format/Info : Audio Coding 3
    Mode extension : CM (complete main)
    Format settings, Endianness : Big
    Codec ID : A_AC3
    Duration : 1h 46mn
    Bit rate mode : Constant
    Bit rate : 384 Kbps
    Channel(s) : 2 channels
    Channel positions : Front: L R
    Sampling rate : 48.0 KHz
    Frame rate : 31.250 fps (1536 spf)
    Compression mode : Lossy
    Stream size : 294 MiB (7%)
    Language : Russian
    Default : Yes
    Forced : No
    Audio #2
    ID : 3
    Format : AC-3
    Format/Info : Audio Coding 3
    Mode extension : CM (complete main)
    Format settings, Endianness : Big
    Codec ID : A_AC3
    Duration : 1h 46mn
    Bit rate mode : Constant
    Bit rate : 384 Kbps
    Channel(s) : 6 channels
    Channel positions : Front: L C R, Side: L R, LFE
    Sampling rate : 48.0 KHz
    Frame rate : 31.250 fps (1536 spf)
    Compression mode : Lossy
    Stream size : 294 MiB (7%)
    Language : English
    Default : No
    Forced : No
    Text
    ID : 4
    Format : UTF-8
    Codec ID : S_TEXT/UTF8
    Codec ID/Info : UTF-8 Plain Text
    Duration : 1h 40mn
    Bit rate : 66 bps
    Count of elements : 1361
    Stream size : 49.3 KiB (0%)
    Language : English
    Default : No
    Forced : No
    Menu
    00: 00: 00.000 : en: Chapter 1
    00: 08: 32.554 : en: Chapter 2
    00: 16: 21.022 : en: Chapter 3
    00: 25: 50.508 : en: Chapter 4
    00: 33: 23.335 : en: Chapter 5
    00: 43: 28.314 : en: Chapter 6
    00: 51: 36.135 : en: Chapter 7
    01: 01: 11.543 : en: Chapter 8
    01: 09: 42.595 : en: Chapter 9
    01: 17: 53.294 : en: Chapter 10
    01: 27: 21.487 : en: Chapter 11
    01: 41: 54.818 : en: Chapter 12
    Скриншоты


    Онлайн видео Пеле: Рождение легенды


    Размер скачиваемого торрента: 3.97 GB (4261558197 Bytes)

    Пеле: Рождение легенды/Pel: Birth of a Legend (2016) WEB-DL 1080p от ExKinoRay | L
    загрузка...
    Рейтинг →
     (голосов: 1, оценка 5/5, голосовать можно 1 раз )

    Другие торренты по теме:

  • Пеле: Рождение легенды / Pel: Birth of a Legend (2016) WEBDLRip 720p | L
  • Пеле: Рождение легенды / Pelé: Birth of a Legend (2016)
  • Пеле: Рождение легенды / Pel: Birth of a Legend (2016) HDRip от MegaPeer | iTunes
  • Пеле: Рождение легенды / Pel: Birth of a Legend (2016) BDRip от MegaPeer | iTunes
  • Пеле: Рождение легенды / Pel: Birth of a Legend (2016) HDRip | iTunes
  • Пеле: Рождение легенды / Pel: Birth of a Legend (2016) BDRip 720p | iTunes
  • Пеле: Рождение легенды / Pel: Birth of a Legend (2016) HDRip от Scarabey | iTunes
  • Пеле: Рождение легенды / Pel: Birth of a Legend (2016) BDRip от ExKinoRay | iTunes


    • Комментарии (0):

      Информация

      Информация

        Посетители, находящиеся в группе Гости, не могут оставлять комментарии в данной новости.

        ↓ Меню



        ↓ Опрос

        А Вы добавили сайт в закладки?
        Да
        Не


        Top 10 за месяц (Фильмы)