.
Авторизация | Регистрация
Хочешь лучшие торренты? Добавь свой email!
Добавить
» » Пурпурная маска / Лиловая маска / The Purple Mask (1955) DVDRip | P2 скачать торрент бесплатно




    Пурпурная маска / Лиловая маска / The Purple Mask (1955) DVDRip | P2 скачать торрент бесплатно

    Опубликовал: Админ | Дата: 29-05-2016, 05:00 | Просмотров: 57



    Снималось в: США
    Создали в: Universal International Pictures (UI)
    Категория жанра: Приключения, исторический
    Создали в: 1955
    Время просмотра: 01: 18: 57
    Перевод текста: Профессиональный двухголосый
    Главный режиссер: Х. Брюс Хамберстоун

    Актеры
    Тони Кёртис, Коллин Миллер, Джин Бэрри, Дэн О`Херлихи, Анджела Лэнсбери, Джордж Доленц, Джон Хойт, Дональд Рендольф, Роберт Корнтуэйт, Пол Кэвэна, Эллисон Хэйес, Карл Миллетэр, Джин Дарси, Дайан Дюбуа, Эверетт Гласс, Ольга Андре
    Описание: Франция 1803 год. Прошло 11 лет после Великой французкой революции. Молодой дворянин, скрывающий свое лицо под маской помогает аристократам-роялистам избежать гильотины, а также похищает чиновников Республики, предлагая вернуть их Наполеону за выкуп. Шпионские услуги ему оказывают девушки-модели, которых возглавляет Лоретта. Но даже она не знает, что под пурпурной маскрй скрывается всем известный пижон, модный танцмейстер Рене ...

    Исходник: DVD5 R1
    Тип релиза: DVDRip
    Контейнер: AVI
    Информация о видео: 640x480 (1.33: 1), 25 fps, XviD MPEG-4 ~2277 kbps avg, 0.30 bit/pixel
    Информация о звуке 1: 48 kHz, AC3 Dolby Digital, 2/0 (L, R) ch, ~192 kbps
    MediaInfo

    Общее
    Полное имя : D: ААА2Пурпурная Маска.avi
    Формат : AVI
    Формат/Информация : Audio Video Interleave
    Размер файла : 1, 37 Гбайт
    Продолжительность : 1 ч. 18 м.
    Общий поток : 2478 Кбит/сек
    Программа кодирования : VirtualDubMod 1.5.10.3 | www.virtualdub-fr.org || (build 2550/release)
    Библиотека кодирования : VirtualDubMod build 2550/release
    Видео
    Идентификатор : 0
    Формат : MPEG-4 Visual
    Профиль формата : Advanced Simple@L5
    Параметр BVOP формата : 2
    Параметр QPel формата : Нет
    Параметр GMC формата : Без точки перехода
    Параметр матрицы формата : Default (MPEG)
    Режим смешивания : Сжатый битовый поток
    Идентификатор кодека : XVID
    Идентификатор кодека/Подсказка : XviD
    Продолжительность : 1 ч. 18 м.
    Битрейт : 2278 Кбит/сек
    Ширина : 640 пикселей
    Высота : 480 пикселей
    Соотношение сторон : 4: 3
    Частота кадров : 25, 000 кадров/сек
    Цветовое пространство : YUV
    Субдискретизация насыщенности : 4: 2: 0
    Битовая глубина : 8 бит
    Тип развёртки : Прогрессивная
    Метод сжатия : С потерями
    Бит/(Пиксели*Кадры) : 0.297
    Размер потока : 1, 26 Гбайт (92%)
    Библиотека кодирования : XviD 1.2.1 (UTC 2008-12-04)
    Аудио
    Идентификатор : 1
    Формат : AC-3
    Формат/Информация : Audio Coding 3
    Расширение режима : CM (complete main)
    Параметр Endianness формата : Big
    Идентификатор кодека : 2000
    Продолжительность : 1 ч. 18 м.
    Вид битрейта : Постоянный
    Битрейт : 192 Кбит/сек
    Каналы : 2 канала
    Расположение каналов : Front: L R
    Частота : 48, 0 КГц
    Битовая глубина : 16 бит
    Метод сжатия : С потерями
    Размер потока : 108 Мбайт (8%)
    Выравнивание : Разделение по промежуткам
    Продолжительность промежутка : 40 мс. (1, 01 видеокадр)
    Время предзагрузки промежутка : 500 мс.

    Скриншоты



    Релиз:
    Залил: YArl

    Онлайн видео Пурпурная маска


    Размер скачиваемого торрента: 1.37 GB (1467607040 Bytes)

    Пурпурная маска/Лиловая маска/The Purple Mask (1955) DVDRip | P2
    загрузка...
    Рейтинг →
     (голосов: 1, оценка 4/5, голосовать можно 1 раз )

    Другие торренты по теме:

  • Пурпурная роза Каира / The Purple Rose of Cairo (1985) HDTVRip | P2, A скачать через торрент бесплатно
  • Пурпурная роза Каира / The Purple Rose of Cairo (1985) HDTVRip 720p | P2, A скачать через торрент бесплатно
  • Пурпурная дива / Scarlet Diva (2000) DVDRip-AVC | P скачать через торрент бесплатно
  • Темные предания 8: Русалочка и пурпурная волна. Коллекционное издание (2015) PC
  • Пурпурная бабочка / Zi hudie (2003) DVDRip | P
  • Пурпурная роза Каира / The Purple Rose of Cairo (1985) BDRip 720p от NNNB | P2, A


    • Комментарии (0):

      Информация

      Информация

        Посетители, находящиеся в группе Гости, не могут оставлять комментарии в данной новости.

        ↓ Меню



        ↓ Опрос

        А Вы добавили сайт в закладки?
        Да
        Не


        Top 10 за месяц (Фильмы)