.
Авторизация | Регистрация
Хочешь лучшие торренты? Добавь свой email!
Добавить
» » Цветок и змея: Ноль / Hana to hebi: Zero (2014) BDRip 720p | L1 скачать торрент бесплатно




    Цветок и змея: Ноль / Hana to hebi: Zero (2014) BDRip 720p | L1 скачать торрент бесплатно

    Опубликовал: Админ | Дата: 28-05-2016, 05:00 | Просмотров: 78



    Детально о кино
    Русское название: Цветок и змея: Ноль
    Русское название в мировом прокате: Hana to hebi: Zero/Flower and Snake: Zero
    Создали в: 2014
    Категория жанра: триллер, эротика
    Главный режиссер: Хадзимэ Хасимото

    Актеры
    Maiko Amano, Норико Хамада, Рина Сакураги, Наоки Кавано, Ючи Кимура, Хидэо Сакаки, Дайкити Сугавара, Кандзи Цуда, Юки Цудзимото

    Сюжет фильма
    Мисаки Амемия, женщина-детектив, вступает в борьбу с подпольным сообществом. Банда похищает женщин и выкладывает мучения на закрытом сайте в прямом эфире. В расследовании она продвигается слишком далеко и сама попадает в ловушку.


    Снималось в: Япония/Toei Video Co. Ltd.
    Время просмотра: 01: 51: 11
    Тип перевода: Любительское (одноголосое) Хихикающий доктор

    Файл
    Тип видео: MKV
    Качество фильма: BDRip 720p
    Информация о видео: MPEG-4 AVC, 7500 kb/s, 1280x690
    Информация о звуке: Russian: AC3, 192 kb/s (2 ch)/Japanese: AC3, 640 kb/s (6 ch)
    Субтитры: Chinese
    MI

    Format : Matroska
    Format version : Version 2
    File size : 6.47 GiB
    Duration : 1h 51mn
    Overall bit rate : 8 333 Kbps
    Encoded date : UTC 2016-05-27 21: 37: 31
    Writing application : mkvmerge v7.8.0 (;River Man;) 32bit built on Apr 3 2015 12: 11: 22
    Writing library : libebml v1.3.1 + libmatroska v1.4.2
    Video
    ID : 1
    Format : AVC
    Format/Info : Advanced Video Codec
    Format profile : High@L4.1
    Format settings, CABAC : Yes
    Format settings, ReFrames : 9 frames
    Codec ID : V_MPEG4/ISO/AVC
    Duration : 1h 51mn
    Bit rate : 7 500 Kbps
    Width : 1 280 pixels
    Height : 690 pixels
    Display aspect ratio : 1.85: 1
    Frame rate mode : Constant
    Frame rate : 23.976 fps
    Color space : YUV
    Chroma subsampling : 4: 2: 0
    Bit depth : 8 bits
    Scan type : Progressive
    Bits/(Pixel*Frame) : 0.354
    Stream size : 5.70 GiB (88%)
    Writing library : x264 core 136 r2348+704+51 d1baef6 tMod 8-bit@all X86
    Encoding settings : cabac=1/ref=9/deblock=1: -2: -2/analyse=0x3: 0x133/me=umh/subme=11/psy=1/fade_compensate=0.00/psy_rd=1.05: 0.00/mixed_ref=1/me_range=32/chroma_me=1/trellis=2/8x8dct=1/cqm=0/deadzone=21, 11/fast_pskip=0/chroma_qp_offset=-2/threads=12/lookahead_threads=3/sliced_threads=0/nr=0/decimate=0/interlaced=0/bluray_compat=0/constrained_intra=0/fgo=0/bframes=10/b_pyramid=2/b_adapt=2/b_bias=0/direct=3/weightb=1/open_gop=0/weightp=2/keyint=250/keyint_min=23/scenecut=40/intra_refresh=0/rc=2pass/mbtree=0/bitrate=7500/ratetol=1.0/qcomp=0.75/qpmin=0: 0: 0/qpmax=69: 69: 69/qpstep=4/cplxblur=20.0/qblur=0.5/ip_ratio=1.40/pb_ratio=1.30/aq=1: 0.90/aq-sensitivity=10.00/aq-factor=1.00: 1.00: 1.00/aq2=0/aq3=0
    Language : Japanese
    Default : Yes
    Forced : No
    Audio #1
    ID : 2
    Format : AC-3
    Format/Info : Audio Coding 3
    Mode extension : CM (complete main)
    Format settings, Endianness : Big
    Codec ID : A_AC3
    Duration : 1h 51mn
    Bit rate mode : Constant
    Bit rate : 192 Kbps
    Channel(s) : 2 channels
    Channel positions : Front: L R
    Sampling rate : 48.0 KHz
    Bit depth : 16 bits
    Compression mode : Lossy
    Stream size : 153 MiB (2%)
    Language : Russian
    Default : Yes
    Forced : No
    Audio #2
    ID : 3
    Format : AC-3
    Format/Info : Audio Coding 3
    Mode extension : CM (complete main)
    Format settings, Endianness : Big
    Codec ID : A_AC3
    Duration : 1h 51mn
    Bit rate mode : Constant
    Bit rate : 640 Kbps
    Channel(s) : 6 channels
    Channel positions : Front: L C R, Side: L R, LFE
    Sampling rate : 48.0 KHz
    Bit depth : 16 bits
    Compression mode : Lossy
    Stream size : 509 MiB (8%)
    Language : Japanese
    Default : No
    Forced : No
    Text #1
    ID : 4
    Format : ASS
    Codec ID : S_TEXT/ASS
    Codec ID/Info : Advanced Sub Station Alpha
    Compression mode : Lossless
    Title : CHS
    Language : Chinese
    Default : No
    Forced : No
    Text #2
    ID : 5
    Format : ASS
    Codec ID : S_TEXT/ASS
    Codec ID/Info : Advanced Sub Station Alpha
    Compression mode : Lossless
    Title : CHT
    Language : Chinese
    Default : No
    Forced : No
    Menu
    00: 00: 00.000 : en: 00: 00: 00.000
    00: 07: 50.804 : en: 00: 07: 50.804
    00: 16: 29.906 : en: 00: 16: 29.906
    00: 26: 53.278 : en: 00: 26: 53.278
    00: 35: 11.359 : en: 00: 35: 11.359
    00: 46: 40.172 : en: 00: 46: 40.172
    00: 49: 52.531 : en: 00: 49: 52.531
    00: 58: 09.111 : en: 00: 58: 09.111
    01: 06: 36.451 : en: 01: 06: 36.451
    01: 17: 19.802 : en: 01: 17: 19.802
    01: 27: 19.067 : en: 01: 27: 19.067
    01: 35: 09.787 : en: 01: 35: 09.787
    01: 44: 34.226 : en: 01: 44: 34.226
    Скриншоты





    Онлайн видео Цветок и змея: Ноль


    Размер скачиваемого торрента: 6.47 GB (6949405686 Bytes)

    Цветок и змея: Ноль/Hana to hebi: Zero (2014) BDRip 720p | L1
    загрузка...
    Рейтинг →
     (голосов: 1, оценка 4/5, голосовать можно 1 раз )

    Другие торренты по теме:

  • Цветок и змея: Ноль / Hana to hebi: Zero (2014) WEBRip | L1


    • Комментарии (0):

      Информация

      Информация

        Посетители, находящиеся в группе Гости, не могут оставлять комментарии в данной новости.

        ↓ Меню



        ↓ Опрос

        А Вы добавили сайт в закладки?
        Да
        Не


        Top 10 за месяц (Фильмы)