.
Авторизация | Регистрация
Хочешь лучшие торренты? Добавь свой email!
Добавить
» » Банши / Banshee (2013–2016) BDRip HEVC 1080p, HDTVRip HEVC 1080p | Amedia скачать торрент бесплатно




    Банши / Banshee (2013–2016) BDRip HEVC 1080p, HDTVRip HEVC 1080p | Amedia скачать торрент бесплатно

    Опубликовал: Админ | Дата: 24-05-2016, 14:43 | Просмотров: 59



    Банши / Banshee
    Снималось в: США
    Создали в: Cinemax, Your Face Goes Here Entertainment
    Создали в: 2013–2016
    Категория жанра: боевик, триллер, драма, криминал, детектив
    Сезоны: 1-4
    Серии: 1-38 (из 38)
    Время просмотра: 38х ~00: 50: 00
    Главный режиссеры: Оле Кристиан Мадсен, Грег Яйтанс, Лони Перистер
    Авторы сценария: Дэвид Шиклер, Джонатан Троппер, Адам Таргум

    Актеры
    Энтони Старр, Ивана Миличевич, Ульрих Томсен, Хун Ли, Фрэнки Фэйзон, Лили Симмонс, Триесте Келли Данн, Рас Блэквелл
    Описание: Лукас Худ — отбывший наказание в тюрьме вор, который некогда предал своих подельников. После отсидки он приезжает в небольшой городок в Пенсильвании, носящий название Банши, где обманом получает пост местного шерифа. Но это не значит, что он забыл своё криминальное прошлое и теперь служит закону. Гангстеры, которых он когда-то предал, всё еще помнят про него и стремятся отомстить. Назревает жесткое противостояние между новоявленным шерифом и его бывшими приятелями. Спокойствие местного населения нарушается, а убийство следует за убийством, когда шериф начинает наводить порядок во вверенном его заботам городке...

    Субтитры: нет
    Перевод текста: Профессиональный (многоголосый, закадровый) | Amedia
    Качество фильма: BDRip HEVC 1080p (сезон любимого сериалаы: 1-2) | HDTVRip HEVC 1080p (сезон любимого сериалаы: 3-4)
    Тип видео: МР4
    Информация о видео кодек: HEVC
    Информация о звуке кодек: ААС
    Информация о видео: 1920x1080 (16: 9), 23.976 fps, MPEG-4 HEVC ~3000 kbps
    Информация о звуке: 48.0 kHz, Advanced Audio Codec LC, 2/0 (L, R) ch, ~192 kbps avg
    Дата премьеры (мир): 11 января 2013
    Релиз подготовил: Medivh (gmnet)
    Важно! HEVC

    *H.265/HEVC ( High Efficiency Video Coding) - это новый стандарт кодирования видео.
    *Рипы в фомате HEVC, в настоящее время не поддерживается большинством аппаратных проигрывателей.
    *Для корректного воспроизведения может потребоваться обновление ПО.
    *Стандарт H.265/HEVCявляется логическим продолжением стандарта H.264/AVC (Advanced Video Coding), и характеризуется более эффективными алгоритмами сжатия, а также поддержкой высокого разрешения вплоть до 8K UHD (8192x4320). Первая версия стандарта H.265 была опубликована в начале 2013 года.

    Media Info

    Общее
    Полное имя : 1x01 - Пилотный эпизод.mp4
    Формат : MPEG-4
    Профиль формата : Base Media
    Идентификатор кодека : isom
    Размер файла : 1, 30 Гбайт
    Продолжительность : 59 м.
    Режим общего битрейта : Переменный
    Общий поток : 3125 Кбит/сек
    Программа кодирования : Lavf55.37.101
    Видео
    Идентификатор : 1
    Формат : HEVC
    Формат/Информация : High Efficiency Video Coding
    Профиль формата : Main@L4.0
    Идентификатор кодека : hev1
    Идентификатор кодека/Информация : High Efficiency Video Coding
    Продолжительность : 59 м.
    Битрейт : 2954 Кбит/сек
    Ширина : 1920 пикселей
    Высота : 1080 пикселей
    Соотношение сторон : 16: 9
    Режим частоты кадров : Постоянный
    Частота кадров : 23, 976 кадра/сек
    Цветовое пространство : YUV
    Субдискретизация насыщенности : 4: 2: 0
    Битовая глубина : 8 бит
    Тип развёртки : Прогрессивная
    Бит/(Пиксели*Кадры) : 0.059
    Размер потока : 1, 23 Гбайт (95%)
    Язык : English
    Аудио
    Идентификатор : 2
    Формат : AAC
    Формат/Информация : Advanced Audio Codec
    Профиль формата : LC
    Идентификатор кодека : 40
    Продолжительность : 59 м.
    Вид битрейта : Переменный
    Битрейт : 165 Кбит/сек
    Максимальный битрейт : 192 Кбит/сек
    Каналы : 2 канала
    Расположение каналов : Front: L R
    Частота : 48, 0 КГц
    Метод сжатия : С потерями
    Размер потока : 70, 5 Мбайт (5%)
    Язык : Russian

    Скриншоты

    Залил: Zha-4k-e
    Размер скачиваемого торрента: 41.82 GB (44905230989 Bytes)

    Банши/Banshee (2013–2016) BDRip HEVC 1080p, HDTVRip HEVC 1080p | Amedia
    загрузка...
    Рейтинг →
     (голосов: 1, оценка 3/5, голосовать можно 1 раз )

    Другие торренты по теме:

  • Банши / Banshee (2013) HDTV 720p | NewStudio
  • Банши / Banshee (2013) BDRip-AVC | NewStudio ДабЛаб скачать через торрент бесплатно
  • Банши / Banshee (2013) HDRip | Amedia скачать через торрент бесплатно
  • Банши / Banshee (2014) HDTVRip от super12308 | Amedia скачать через торрент бесплатно
  • Банши / Banshee (2014) HDTVRip 720p | Amedia скачать через торрент бесплатно
  • Банши / Banshee (2014) HDTVRip | Пифагор скачать через торрент бесплатно
  • Банши / Banshee (2014) 720p
  • Банши / Banshee (2014) HDTVRip | Amedia


    • Комментарии (0):

      Информация

      Информация

        Посетители, находящиеся в группе Гости, не могут оставлять комментарии в данной новости.

        ↓ Меню



        ↓ Опрос

        А Вы добавили сайт в закладки?
        Да
        Не


        Top 10 за месяц (Фильмы)