.
Авторизация | Регистрация
Хочешь лучшие торренты? Добавь свой email!
Добавить
» » Боги Египта / Gods of Egypt (2016) BDRip 1080p от ExKinoRay | Лицензия скачать торрент бесплатно




    Боги Египта / Gods of Egypt (2016) BDRip 1080p от ExKinoRay | Лицензия скачать торрент бесплатно

    Опубликовал: Админ | Дата: 23-05-2016, 05:00 | Просмотров: 86



    Детально о кино
    Русское название: Боги Египта
    Русское название в мировом прокате: Gods of Egypt
    Создали в: 2016
    Категория жанра: Фэнтези, приключения
    Главный режиссер: Алекс Пройас

    Актеры
    Брентон Туэйтс, Джерард Батлер, Николай Костер-Валдау, Чэдвик Боузмэн, Элоди Юнг, Кортни Итон, Руфус Сьюэлл, Джеффри Раш, Брайан Браун, Рэйчел Блэйк, Эмма Бут, Александр Инглэнд, Горан Д’Клюе, Йайа Ден, Эбби Ли, Кеннет Рэнсом, Джон Самаха

    Сюжет фильма

    Злобный бог пустыни Сет вероломно убивает своего брата Осириса и узурпирует власть над египетским царством. Бог неба Гор, истинный наследник трона, ослеплен и отправлен в изгнание. Однако, посреди наступившего хаоса и мрака нашелся тот, кто усомнился в правоте нового царя. Чтобы вернуть свою возлюбленную к жизни, молодой и находчивый вор заключает сделку с одержимым местью Гором. Им предстоит удивительное и преисполненное опасностями путешествие, где их будут поджидать засады, огонь неприятеля, трагедии ревности и чудесные спасения.

    Снималось в: США
    Киностудия: Mystery Clock Cinema, Pyramania, Summit Entertainment, Thunder Road
    Время просмотра: 02: 07: 02
    Перевод текста: Дублированный (Централ Партнершип)
    Файл
    Кодек для видео: MPEG-4
    Качество фильма: BDRip 1080p
    Информация о видео: 1920x800, 13.5 Mbit/s, 23.976 fps
    Информация о звуке:
    Информация о звуке #01: 48 kHz, DTS, 5.1, 1536 Kbps | Дублированный, Лицензия (Централ Партнершип) | DTS
    Информация о звуке #02: 48 kHz, AC3, 5.1, 640 Kbps | Дублированный, Лицензия (Централ Партнершип) | AC3
    Информация о звуке #03: 48 kHz, DTS, 5.1, 1510 kbps | Оригинал | DTS
    Субтитры: Русские, английские (srt, SDH)
    Релиз подготовил: Автор релиза:

    MI
    General
    Unique ID : 218685947038313070592180678304224019010 (0xA48561A23C72C624B66BA804DDE48242)
    Complete name : F: VideoGods.of.Egypt.2016.BDRip.1080p.ExKinoRay.mkv
    Format : Matroska
    Format version : Version 4/Version 2
    File size : 15.3 GiB
    Duration : 2h 7mn
    Overall bit rate : 17.2 Mbps
    Movie name : Gods.of.Egypt.2016.BDRip.1080p.ExKinoRay
    Encoded date : UTC 2016-05-22 16: 57: 35
    Writing application : mkvmerge v8.3.0 (;Over the Horizon;) 64bit
    Writing library : libebml v1.3.1 + libmatroska v1.4.2
    Video
    ID : 1
    Format : AVC
    Format/Info : Advanced Video Codec
    Format profile : High@L4.1
    Format settings, CABAC : Yes
    Format settings, ReFrames : 5 frames
    Codec ID : V_MPEG4/ISO/AVC
    Duration : 2h 7mn
    Bit rate : 13.5 Mbps
    Width : 1 920 pixels
    Height : 800 pixels
    Display aspect ratio : 2.40: 1
    Frame rate mode : Constant
    Frame rate : 23.976 (24000/1001) fps
    Color space : YUV
    Chroma subsampling : 4: 2: 0
    Bit depth : 8 bits
    Scan type : Progressive
    Bits/(Pixel*Frame) : 0.367
    Stream size : 12.0 GiB (79%)
    Title : Gods.of.Egypt.2016.BDRip.1080p.ExKinoRay.***селезень***
    Writing library : x264 core 146 r2538 121396c
    Encoding settings : cabac=1/ref=5/deblock=1: -3: -3/analyse=0x3: 0x133/me=umh/subme=11/psy=1/psy_rd=1.10: 0.00/mixed_ref=1/me_range=48/chroma_me=1/trellis=2/8x8dct=1/cqm=0/deadzone=21, 11/fast_pskip=0/chroma_qp_offset=-2/threads=6/lookahead_threads=2/sliced_threads=0/nr=0/decimate=0/interlaced=0/bluray_compat=0/constrained_intra=0/bframes=8/b_pyramid=2/b_adapt=2/b_bias=0/direct=3/weightb=1/open_gop=0/weightp=2/keyint=250/keyint_min=23/scenecut=40/intra_refresh=0/rc_lookahead=150/rc=2pass/mbtree=1/bitrate=13512/ratetol=1.0/qcomp=0.70/qpmin=0/qpmax=69/qpstep=4/cplxblur=20.0/qblur=0.5/vbv_maxrate=50000/vbv_bufsize=62500/nal_hrd=none/filler=0/ip_ratio=1.40/aq=3: 0.80
    Language : English
    Default : Yes
    Forced : No
    Audio #1
    ID : 2
    Format : DTS
    Format/Info : Digital Theater Systems
    Mode : 16
    Format settings, Endianness : Big
    Codec ID : A_DTS
    Duration : 2h 7mn
    Bit rate mode : Constant
    Bit rate : 1 536 Kbps
    Channel(s) : 6 channels
    Channel positions : Front: L C R, Side: L R, LFE
    Sampling rate : 48.0 KHz
    Frame rate : 93.750 fps (512 spf)
    Bit depth : 16 bits
    Compression mode : Lossy
    Stream size : 1.36 GiB (9%)
    Title : DUB License
    Language : Russian
    Default : Yes
    Forced : No
    Audio #2
    ID : 3
    Format : AC-3
    Format/Info : Audio Coding 3
    Mode extension : CM (complete main)
    Format settings, Endianness : Big
    Codec ID : A_AC3
    Duration : 2h 7mn
    Bit rate mode : Constant
    Bit rate : 640 Kbps
    Channel(s) : 6 channels
    Channel positions : Front: L C R, Side: L R, LFE
    Sampling rate : 48.0 KHz
    Frame rate : 31.250 fps (1536 spf)
    Compression mode : Lossy
    Stream size : 582 MiB (4%)
    Title : DUB-AC3 License
    Language : Russian
    Default : No
    Forced : No
    Audio #3
    ID : 4
    Format : DTS
    Format/Info : Digital Theater Systems
    Mode : 16
    Format settings, Endianness : Big
    Codec ID : A_DTS
    Duration : 2h 7mn
    Bit rate mode : Constant
    Bit rate : 1 509 Kbps
    Channel(s) : 6 channels
    Channel positions : Front: L C R, Side: L R, LFE
    Sampling rate : 48.0 KHz
    Frame rate : 93.750 fps (512 spf)
    Bit depth : 24 bits
    Compression mode : Lossy
    Delay relative to video : 11ms
    Stream size : 1.34 GiB (9%)
    Title : Original
    Language : English
    Default : No
    Forced : No
    Text #1
    ID : 5
    Format : UTF-8
    Codec ID : S_TEXT/UTF8
    Codec ID/Info : UTF-8 Plain Text
    Duration : 1h 55mn
    Bit rate : 75 bps
    Count of elements : 1064
    Stream size : 64.1 KiB (0%)
    Title : Full
    Language : Russian
    Default : No
    Forced : No
    Text #2
    ID : 6
    Format : UTF-8
    Codec ID : S_TEXT/UTF8
    Codec ID/Info : UTF-8 Plain Text
    Duration : 1h 55mn
    Bit rate : 46 bps
    Count of elements : 1415
    Stream size : 39.7 KiB (0%)
    Title : Full
    Language : English
    Default : No
    Forced : No
    Text #3
    ID : 7
    Format : UTF-8
    Codec ID : S_TEXT/UTF8
    Codec ID/Info : UTF-8 Plain Text
    Duration : 1h 55mn
    Bit rate : 52 bps
    Count of elements : 1487
    Stream size : 44.4 KiB (0%)
    Title : SDH
    Language : English
    Default : No
    Forced : No
    Menu
    00: 00: 00.000 : en: 00: 00: 00.000
    00: 07: 08.011 : en: 00: 07: 08.011
    00: 18: 07.545 : en: 00: 18: 07.545
    00: 23: 47.259 : en: 00: 23: 47.259
    00: 30: 11.810 : en: 00: 30: 11.810
    00: 39: 16.521 : en: 00: 39: 16.521
    00: 46: 30.621 : en: 00: 46: 30.621
    00: 54: 46.074 : en: 00: 54: 46.074
    01: 01: 14.129 : en: 01: 01: 14.129
    01: 09: 29.040 : en: 01: 09: 29.040
    01: 18: 03.345 : en: 01: 18: 03.345
    01: 28: 18.251 : en: 01: 28: 18.251
    01: 36: 12.058 : en: 01: 36: 12.058
    01: 39: 14.657 : en: 01: 39: 14.657
    01: 46: 58.328 : en: 01: 46: 58.328
    01: 52: 11.016 : en: 01: 52: 11.016
    Скриншоты


    Онлайн видео Боги Египта


    Размер скачиваемого торрента: 15.26 GB (16385426588 Bytes)

    Боги Египта/Gods of Egypt (2016) BDRip 1080p от ExKinoRay | Лицензия
    загрузка...
    Рейтинг →
     (голосов: 1, оценка 5/5, голосовать можно 1 раз )

    Другие торренты по теме:

  • Боги Египта / Gods of Egypt (2016) WEBRip 1080p | Трейлер
  • Боги Египта (2016)
  • Боги Египта (2016)
  • Боги Египта / Gods of Egypt (2016) TS | D
  • Боги Египта / Gods of Egypt (2016) WEB-DL 1080p | iTunes
  • Боги Египта / Gods of Egypt (2016) WEB-DLRip от ImperiaFilm | КПК | iTunes
  • Боги Египта / Gods of Egypt (2016) BDRip 720p | iTunes
  • Боги Египта / Gods of Egypt (2016) BDRip 720p от ExKinoRay | D


    • Комментарии (0):

      Информация

      Информация

        Посетители, находящиеся в группе Гости, не могут оставлять комментарии в данной новости.

        ↓ Меню



        ↓ Опрос

        А Вы добавили сайт в закладки?
        Да
        Не


        Top 10 за месяц (Фильмы)