.
Авторизация | Регистрация
Хочешь лучшие торренты? Добавь свой email!
Добавить
» » СуперБобровы (2016) BDRip | Лицензия скачать торрент бесплатно




    СуперБобровы (2016) BDRip | Лицензия скачать торрент бесплатно

    Опубликовал: Админ | Дата: 22-05-2016, 14:02 | Просмотров: 38



    Вместе мы сила
    Детально о кино
    Русское название: СуперБобровы
    Создали в: 2016
    Категория жанра: Комедия, семейный
    Главный режиссер: Дмитрий Дьяченко

    Актеры
    Павел Деревянко, Оксана Акиньшина, Роман Мадянов, Ирина Пегова, Владимир Толоконников, Даниил Вахрушев, Софья Мицкевич, Михаил Шамигулов, Елизавета Кононова, Виталий Кищенко

    Сюжет фильма

    Вместо десерта на ужин семейство Бобровых получило… метеорит. Настоящий, большой, из космоса. Благодаря ему Бобровы вдруг приобретают немыслимые сверхспособности. Дед становится бессмертным, а отец теперь может телепортироваться. Сын начинает понимать собачий язык, а его сёстры получают суперсилу, возможность летать и быть невидимой. Единственное ограничение — способности действуют только когда вся семейка в сборе.
    Короче, у заурядной, среднестатистической ячейки общества появляется шанс превратиться в отряд настоящих супергероев. Вот только вместо того, чтобы спасать мир, они решают ограбить ближайший банк…

    Снималось в: Россия
    Киностудия: Yellow, Black White
    Время просмотра: 01: 31: 28
    Перевод текста: Не требуется
    Файл
    Качество фильма: BDRip (исх.СуперБобровы (2016) Blu-ray RUS 1080i AVC DTS-HD 5.1 )
    Кодек для видео: XviD
    Информация о видео: 720x304 (2, 35: 1), 25 fps, XviD ~1830 kbps avg, 0.334 bit/pixel
    Информация о звуке: AC3, 48 kHz, 6 ch, ~448.00 kbps avg
    Субтитры: Отсутствуют
    Семпл
    Инфо-файл
    Общее
    Полное имя : SuperBobrovy.(2016).BDRip.avi
    Формат : AVI
    Формат/Информация : Audio Video Interleave
    Размер файла : 1, 46 Гбайт
    Продолжительность : 1 ч. 31 м.
    Общий поток : 2288 Кбит/сек
    Программа кодирования : VirtualDubMod 1.5.10.3 (build 2550/release)
    Библиотека кодирования : VirtualDubMod build 2550/release
    Видео
    Идентификатор : 0
    Формат : MPEG-4 Visual
    Профиль формата : Advanced Simple@L5
    Параметр BVOP формата : 2
    Параметр QPel формата : Нет
    Параметр GMC формата : Без точки перехода
    Параметр матрицы формата : Default (MPEG)
    Идентификатор кодека : XVID
    Идентификатор кодека/Подсказка : XviD
    Продолжительность : 1 ч. 31 м.
    Битрейт : 1830 Кбит/сек
    Ширина : 720 пикселей
    Высота : 304 пикселя
    Соотношение сторон : 2, 35: 1
    Частота кадров : 25, 000 кадров/сек
    Цветовое пространство : YUV
    Субдискретизация насыщенности : 4: 2: 0
    Битовая глубина : 8 бит
    Тип развёртки : Прогрессивная
    Метод сжатия : С потерями
    Бит/(Пиксели*Кадры) : 0.334
    Размер потока : 1, 17 Гбайт (80%)
    Библиотека кодирования : XviD 73
    Аудио
    Идентификатор : 1
    Формат : AC-3
    Формат/Информация : Audio Coding 3
    Расширение режима : CM (complete main)
    Параметр Endianness формата : Big
    Идентификатор кодека : 2000
    Продолжительность : 1 ч. 31 м.
    Вид битрейта : Постоянный
    Битрейт : 448 Кбит/сек
    Каналы : 6 каналов
    Расположение каналов : Front: L C R, Side: L R, LFE
    Частота : 48, 0 КГц
    Частота кадров : 31, 250 кадров/сек (1536 spf)
    Метод сжатия : С потерями
    Размер потока : 293 Мбайт (20%)
    Выравнивание : Разделение по промежуткам
    Продолжительность промежутка : 40 мс. (1, 00 видеокадр)
    Время предзагрузки промежутка : 500 мс.
    Скриншоты

    Залил: admiralkz

    Онлайн видео СуперБобровы (2016) BDRip


    Размер скачиваемого торрента: 1.46 GB (1569394688 Bytes)

    СуперБобровы (2016) BDRip | Лицензия
    загрузка...
    Рейтинг →
     (голосов: 1, оценка 5/5, голосовать можно 1 раз )

    Другие торренты по теме:

  • СуперБобровы (2016) BDRip 1080p от ExKinoRay | Лицензия
  • СуперБобровы (2016) BDRip-AVC от ExKinoRay | Лицензия
  • СуперБобровы (2015) BDRip 720p от HELLYWOOD | Лицензия


    • Комментарии (0):

      Информация

      Информация

        Посетители, находящиеся в группе Гости, не могут оставлять комментарии в данной новости.

        ↓ Меню



        ↓ Опрос

        А Вы добавили сайт в закладки?
        Да
        Не


        Top 10 за месяц (Фильмы)