.
Авторизация | Регистрация
Хочешь лучшие торренты? Добавь свой email!
Добавить
» » Жаворонок (1964) SATRip от New-Team скачать торрент бесплатно




    Жаворонок (1964) SATRip от New-Team скачать торрент бесплатно

    Опубликовал: Админ | Дата: 21-05-2016, 11:45 | Просмотров: 79



    Снималось в: СССР
    Создали в: Ленфильм
    Категория жанра: драма, военный
    Создали в: 1964
    Время просмотра: 01: 25: 18
    Перевод текста: Не требуется
    Субтитры подготовлены: нет
    Оригинальная аудиодорожка: русский
    Главный режиссер: Никита Курихин, Леонид Менакер

    Актеры

    Вячеслав Гуренков, Геннадий Юхтин, Валерий Погорельцев, Валентинс Скулме, Бруно Оя, Эрвин Абель, Жанис Катлапс, Хейно Мандри, Гунарс Плаценс, Олев Тинн, Янис Юров...
    Полный список актёров
    Описание:
    В основу фильма положен подлинный факт.
    Действия происходят в глубоком тылу Германии. Для улучшения характеристик противотанковых орудий, немцы использовали захваченные трофейные танки Красной Армии в качестве живых мишеней. Экипажи машин укомплектовывали военнопленными танкистами и гражданскими лицами из концлагерей. Фильм повествует о бегстве из плена одного из таких экипажей на танке Т-34. Вырвавшись из плена, они часа два мчались по немецкой территории, пока не подъехали к мосту, где в это время шла группа ребятишек-школьников. Перед экипажем возникла дилемма: раздавить детей гусеницами своего танка и тем самым проложить себе дорогу на другой берег, продолжив бегство, или сдаться в плен! Герои выбрали последнее. Но подоспевшие к месту немецкие артиллерийские расчеты изрешитили танк, оставшегося полуживого командира вечером повесили на орудийном стволе танка. В неравной схватке герои погибают. К такому подвигу нельзя быть равнодушным!
    Об этом сообщила в своей газете Комсомольская Правда в 1964 году, озаглавив статью Подвиг капитана.
    Вечером, на кухне режиссер Леонид Менакер, попивая чай, просматривал очередной ее номер, где и узнал об этом. Вот так и возникла идея снять этот фильм.
    ...хороший фильм можно снять и по газетной публикации... - любил говорить Л.Менакер



    Источник: DVB
    Качество фильма видео: SATRip
    Тип видео видео: AVI
    Информация о видео: 640x480 (4: 3), 25 fps, XviD ~ 1081 kbps avg, 0.141 bit/pixel
    Информация о звуке: 48 kHz, MP3 2.0, 128 kbps
    Раздача от:
    MediaInfo

    Общее
    Полное имя : Zhavoronok.1965.SATRip-745_New-team_by_AVP_Studio.avi
    Формат : AVI
    Формат/Информация : Audio Video Interleave
    Размер файла : 744 Мбайт
    Продолжительность : 1 ч. 25 м.
    Общий поток : 1219 Кбит/сек
    Программа кодирования : VirtualDubMod 1.5.10.3 | www.virtualdub-fr.org || (build 2550/release)
    Библиотека кодирования : VirtualDubMod build 2550/release
    Видео
    Идентификатор : 0
    Формат : MPEG-4 Visual
    Профиль формата : Advanced Simple@L5
    Параметр BVOP формата : 1
    Параметр QPel формата : Нет
    Параметр GMC формата : Без точки перехода
    Параметр матрицы формата : Выборочная
    Идентификатор кодека : XVID
    Идентификатор кодека/Подсказка : XviD
    Продолжительность : 1 ч. 25 м.
    Битрейт : 1081 Кбит/сек
    Ширина : 640 пикселей
    Высота : 480 пикселей
    Соотношение сторон : 4: 3
    Частота кадров : 25, 000 кадров/сек
    Цветовое пространство : YUV
    Субдискретизация насыщенности : 4: 2: 0
    Битовая глубина : 8 бит
    Тип развёртки : Прогрессивная
    Метод сжатия : С потерями
    Бит/(Пиксели*Кадры) : 0.141
    Размер потока : 660 Мбайт (89%)
    Библиотека кодирования : XviD 73
    Аудио
    Идентификатор : 1
    Формат : MPEG Audio
    Версия формата : Version 1
    Профиль формата : Layer 3
    Идентификатор кодека : 55
    Идентификатор кодека/Подсказка : MP3
    Продолжительность : 1 ч. 25 м.
    Вид битрейта : Постоянный
    Битрейт : 128 Кбит/сек
    Каналы : 2 канала
    Частота : 48, 0 КГц
    Метод сжатия : С потерями
    Размер потока : 78, 1 Мбайт (10%)
    Выравнивание : Соединение по промежуткам
    Продолжительность промежутка : 40 мс. (1, 00 видеокадр)
    Время предзагрузки промежутка : 504 мс.
    Библиотека кодирования : LAME3.99r
    Залил: AVPStudio

    Онлайн видео Жаворонок (1964) SATRip от New


    Размер скачиваемого торрента: 743.82 MB (779956224 Bytes)


    Жаворонок (1964) SATRip от New-Team
    загрузка...
    Рейтинг →
     (голосов: 1, оценка 5/5, голосовать можно 1 раз )

    Другие торренты по теме:

  • Жаворонок (1964) SATRip-AVC от New-Team
  • Жан Ануй - Жаворонок (Театр на Фонтанке) / 2008 / РУ / SATRip


    • Комментарии (0):

      Информация

      Информация

        Посетители, находящиеся в группе Гости, не могут оставлять комментарии в данной новости.

        ↓ Меню



        ↓ Опрос

        А Вы добавили сайт в закладки?
        Да
        Не


        Top 10 за месяц (Фильмы)