.
Авторизация | Регистрация
Хочешь лучшие торренты? Добавь свой email!
Добавить
» » 5-я волна / The 5th Wave (2016) BDRemux 1080p от ExKinoRay | Лицензия скачать торрент бесплатно




    5-я волна / The 5th Wave (2016) BDRemux 1080p от ExKinoRay | Лицензия скачать торрент бесплатно

    Опубликовал: Админ | Дата: 21-05-2016, 05:00 | Просмотров: 48



    Детально о кино
    Русское название: 5-я волна
    Русское название в мировом прокате: The 5th Wave
    Создали в: 2015
    Категория жанра: Фантастика, боевик, триллер, приключения
    Главный режиссер: Дж. Блэйксон

    Актеры
    Клои Грэйс Моретц, Ник Дж. Робинсон, Рон Ливингстон, Мэгги Сифф, Алекс Роу, Мария Белло, Майка Монро, Лив Шрайбер, Закари Артур, Тони Револори, Талита Бейтман, Мэттью Зук, Габриела Лопес, Бэйли Энн Бордерс, Дэйв Мальдонадо, Пол Райден, Э. Роджер Митчелл, Чармин Ли, Паркер Вьерлинг, Мэдисон Стэйнс

    Сюжет фильма

    Есть ли жизнь за пределами фейсбука и инстаграма? Что делать, если прорвало центральный канализационный коллектор? Как распознать инопланетян среди насильников, мародеров, каннибалов и жителей спальных районов? Можно ли похудеть, объедаясь на ночь продуктами, найденными на городской свалке? На эти и другие животрепещущие вопросы предстоит найти ответы хорошей девушке Кэсси и всему молодому поколению, пытающимся отвоевать себе право на светлое будущее посреди накатывающих волн психотронного террора от инопланетных захватчиков.

    Снималось в: США
    Киностудия: Columbia Pictures, GK Films, Living Films, LStar Capital, Material Pictures
    Время просмотра: 01: 52: 22
    Перевод текста: Дублированный | Лицензия (Blu-Ray CEE)
    Файл
    Кодек для видео: MPEG-4
    Качество фильма: BDRemux 1080p
    Информация о видео: 1920x1080, 26.5 Mbit/s, 23.976 fps
    Информация о звуке:
    Информация о звуке #01: 48 kHz, AC3, 5.1, 640 Kbps | Дублированный, Лицензия (Blu-Ray CEE) |
    Информация о звуке #02: 48 kHz, AC3, 5.1, 640 Kbps | Дублированный, Лицензия (Blu-Ray CEE) |
    Информация о звуке #03: 48 kHz, DTS-D MA, 5.1, 2190 kbps | Оригинал |
    Субтитры: Русские (forced, full), украинские, английские (srt.SDH)
    Релиз подготовил: Автор релиза:
    MI
    General
    Unique ID : 234588324213644997437259655923905265924 (0xB07C115CB1FF1F8B8693F47FB3070104)
    Complete name : F: VideoThe.5th.Wave.2016.BDREMUX.1080p.ExKinoRay.mkv
    Format : Matroska
    Format version : Version 4/Version 2
    File size : 23.8 GiB
    Duration : 1h 52mn
    Overall bit rate mode : Variable
    Overall bit rate : 30.3 Mbps
    Movie name : The.5th.Wave.2016.BDREMUX.1080p.ExKinoRay
    Encoded date : UTC 2016-05-20 03: 41: 08
    Writing application : mkvmerge v8.3.0 (;Over the Horizon;) 64bit
    Writing library : libebml v1.3.1 + libmatroska v1.4.2
    Video
    ID : 1
    Format : AVC
    Format/Info : Advanced Video Codec
    Format profile : High@L4.1
    Format settings, CABAC : Yes
    Format settings, ReFrames : 2 frames
    Format settings, GOP : M=1, N=10
    Codec ID : V_MPEG4/ISO/AVC
    Duration : 1h 52mn
    Bit rate mode : Variable
    Bit rate : 26.8 Mbps
    Width : 1 920 pixels
    Height : 1 080 pixels
    Display aspect ratio : 16: 9
    Frame rate mode : Constant
    Frame rate : 23.976 (24000/1001) fps
    Color space : YUV
    Chroma subsampling : 4: 2: 0
    Bit depth : 8 bits
    Scan type : Progressive
    Bits/(Pixel*Frame) : 0.540
    Stream size : 21.1 GiB (89%)
    Title : The.5th.Wave.2016.BDREMUX.1080p.ExKinoRay.***селезень***
    Language : English
    Default : Yes
    Forced : No
    Audio #1
    ID : 2
    Format : AC-3
    Format/Info : Audio Coding 3
    Mode extension : CM (complete main)
    Format settings, Endianness : Big
    Codec ID : A_AC3
    Duration : 1h 52mn
    Bit rate mode : Constant
    Bit rate : 640 Kbps
    Channel(s) : 6 channels
    Channel positions : Front: L C R, Side: L R, LFE
    Sampling rate : 48.0 KHz
    Frame rate : 31.250 fps (1536 spf)
    Compression mode : Lossy
    Stream size : 514 MiB (2%)
    Title : DUB Blu-ray CEE
    Language : Russian
    Default : Yes
    Forced : No
    Audio #2
    ID : 3
    Format : AC-3
    Format/Info : Audio Coding 3
    Mode extension : CM (complete main)
    Format settings, Endianness : Big
    Codec ID : A_AC3
    Duration : 1h 52mn
    Bit rate mode : Constant
    Bit rate : 640 Kbps
    Channel(s) : 6 channels
    Channel positions : Front: L C R, Side: L R, LFE
    Sampling rate : 48.0 KHz
    Frame rate : 31.250 fps (1536 spf)
    Compression mode : Lossy
    Stream size : 514 MiB (2%)
    Title : DUB Blu-ray CEE
    Language : Ukrainian
    Default : No
    Forced : No
    Audio #3
    ID : 4
    Format : DTS
    Format/Info : Digital Theater Systems
    Format profile : MA/Core
    Mode : 16
    Format settings, Endianness : Big
    Codec ID : A_DTS
    Duration : 1h 52mn
    Bit rate mode : Variable/Constant
    Bit rate : 2 190 Kbps/1 509 Kbps
    Channel(s) : 6 channels
    Channel positions : Front: L C R, Side: L R, LFE
    Sampling rate : 48.0 KHz
    Frame rate : 93.750 fps (512 spf)
    Bit depth : 16 bits
    Compression mode : Lossless/Lossy
    Stream size : 1.72 GiB (7%)
    Language : English
    Default : No
    Forced : No
    Text #1
    ID : 5
    Format : UTF-8
    Codec ID : S_TEXT/UTF8
    Codec ID/Info : UTF-8 Plain Text
    Duration : 1h 50mn
    Bit rate : 0 bps
    Count of elements : 3
    Stream size : 171 Bytes (0%)
    Title : FORCED
    Language : Russian
    Default : Yes
    Forced : No
    Text #2
    ID : 6
    Format : UTF-8
    Codec ID : S_TEXT/UTF8
    Codec ID/Info : UTF-8 Plain Text
    Duration : 1h 50mn
    Bit rate : 66 bps
    Count of elements : 1245
    Stream size : 53.8 KiB (0%)
    Language : Russian
    Default : No
    Forced : No
    Text #3
    ID : 7
    Format : UTF-8
    Codec ID : S_TEXT/UTF8
    Codec ID/Info : UTF-8 Plain Text
    Duration : 1h 50mn
    Bit rate : 66 bps
    Count of elements : 1245
    Stream size : 54.1 KiB (0%)
    Language : Ukrainian
    Default : No
    Forced : No
    Text #4
    ID : 8
    Format : UTF-8
    Codec ID : S_TEXT/UTF8
    Codec ID/Info : UTF-8 Plain Text
    Duration : 1h 50mn
    Bit rate : 41 bps
    Count of elements : 1226
    Stream size : 33.3 KiB (0%)
    Language : English
    Default : No
    Forced : No
    Text #5
    ID : 9
    Format : UTF-8
    Codec ID : S_TEXT/UTF8
    Codec ID/Info : UTF-8 Plain Text
    Duration : 1h 45mn
    Bit rate : 48 bps
    Count of elements : 1331
    Stream size : 37.5 KiB (0%)
    Title : SDH
    Language : English
    Default : No
    Forced : No
    Menu #1
    00: 00: 00.000 : en: 00: 00: 00.000
    00: 03: 48.562 : en: 00: 03: 48.562
    00: 09: 05.837 : en: 00: 09: 05.837
    00: 16: 01.335 : en: 00: 16: 01.335
    00: 20: 46.036 : en: 00: 20: 46.036
    00: 28: 43.430 : en: 00: 28: 43.430
    00: 37: 41.968 : en: 00: 37: 41.968
    00: 45: 50.957 : en: 00: 45: 50.957
    00: 54: 19.715 : en: 00: 54: 19.715
    00: 59: 47.709 : en: 00: 59: 47.709
    01: 06: 01.749 : en: 01: 06: 01.749
    01: 13: 06.132 : en: 01: 13: 06.132
    01: 18: 13.230 : en: 01: 18: 13.230
    01: 25: 02.264 : en: 01: 25: 02.264
    01: 32: 21.161 : en: 01: 32: 21.161
    01: 43: 07.431 : en: 01: 43: 07.431
    Menu #2
    00: 00: 00.054 : en: 00: 00: 00.054
    Скриншоты


    Онлайн видео 5-я волна


    Размер скачиваемого торрента: 23.80 GB (25550265372 Bytes)

    5-я волна/The 5th Wave (2016) BDRemux 1080p от ExKinoRay | Лицензия
    загрузка...
    Рейтинг →
     (голосов: 1, оценка 3/5, голосовать можно 1 раз )

    Другие торренты по теме:

  • Первая волна / First wave (2000) TVRip
  • Первая волна / First wave (1998-2001) DVDRip, SATRip, DSRip | P скачать через торрент бесплатно
  • OST - 5-я волна / The 5th Wave (2016) MP3
  • 5-я волна / The 5th Wave (2016) WEB-DLRip от Scarabey | iTunes
  • 5-я волна / The 5th Wave (2016) WEB-DLRip от Scarabey | iTunes
  • 5-я волна / The 5th Wave (2016) BDRip-AVC от ExKinoRay | iTunes
  • 5-я волна / The 5th Wave (2016) BDRip от Twi7ter | Лицензия
  • 5-я волна / The 5th Wave (2016) HDRip от MegaPeer | Лицензия


    • Комментарии (0):

      Информация

      Информация

        Посетители, находящиеся в группе Гости, не могут оставлять комментарии в данной новости.

        ↓ Меню



        ↓ Опрос

        А Вы добавили сайт в закладки?
        Да
        Не


        Top 10 за месяц (Фильмы)