.
Авторизация | Регистрация
Хочешь лучшие торренты? Добавь свой email!
Добавить
» » Спартак / Spartacus (2010–2013) BDRip HEVC 1080p | Р | LostFilm скачать торрент бесплатно




    Спартак / Spartacus (2010–2013) BDRip HEVC 1080p | Р | LostFilm скачать торрент бесплатно

    Опубликовал: Админ | Дата: 19-05-2016, 16:45 | Просмотров: 68



    Кровь и песок / Blood and Sand Боги арены / Gods of the Arena
    Месть / Vengeance Война проклятых / War of the Damned
    Снималось в: США
    Создали в: Starz Media, Starz Productions
    Создали в: 2010–2013
    Категория жанра: боевик, драма, приключения, биография, история
    Сезоны: 1-4
    Серии: 1-39 (из 39)
    Время просмотра: 39х ~00: 55: 00
    Главный режиссеры: Джесси Уарн, Майкл Херст, Рик Джейкобсон
    Авторы сценария: Стивен С. ДеНайт, Брент Флетчер, Аарон Хелбинг

    Актеры
    Энди Уитфилд, Лиам МакИнтайр, Ману Беннетт, Дастин Клер, Дэниел Фьюрригал, Ник Е. Тарабэй, Джон Ханна, Люси Лоулесс, Вива Бьянка, Питер Менса
    Описание: Спартак — это жесткий и выразительный рассказ о самом знаменитом из римских гладиаторов. Спартака разлучили с любовью всей его жизни и заставили выходить на арену, где смерть — лучшее развлечение для толпы. Спартак должен бороться за выживание, подружиться с врагами, и усвоить политику нового мира жестокости, секса и славы. Его будут соблазнять властью и изводить местью. Но его страсть даст ему силы преодолеть все испытания в этой истории о смерти, чести и стойкости...

    Субтитры: нет
    Перевод текста: Профессиональный (многоголосый, закадровый) | LostFilm
    Качество фильма: BDRip HEVC 1080p
    Тип видео: МР4
    Информация о видео кодек: HEVC
    Информация о звуке кодек: ААС
    Информация о видео: 1920x1080 (16: 9), 23.976 fps, MPEG-4 HEVC ~3000 kbps
    Информация о звуке: 48.0 kHz, Advanced Audio Codec LC, 2/0 (L, R) ch, ~192 kbps avg
    Дата премьеры (мир): 22 января 2010
    Релиз подготовил: Medivh (gmnet)
    Важно! HEVC

    *H.265/HEVC ( High Efficiency Video Coding) - это новый стандарт кодирования видео.
    *Рипы в фомате HEVC, в настоящее время не поддерживается большинством аппаратных проигрывателей.
    *Для корректного воспроизведения может потребоваться обновление ПО.
    *Стандарт H.265/HEVCявляется логическим продолжением стандарта H.264/AVC (Advanced Video Coding), и характеризуется более эффективными алгоритмами сжатия, а также поддержкой высокого разрешения вплоть до 8K UHD (8192x4320). Первая версия стандарта H.265 была опубликована в начале 2013 года.

    Media Info

    Формат : MPEG-4
    Профиль формата : Base Media
    Идентификатор кодека : isom
    Размер файла : 1, 21 Гбайт
    Продолжительность : 54 м.
    Режим общего битрейта : Переменный
    Общий поток : 3158 Кбит/сек
    Программа кодирования : Lavf55.37.101
    Видео
    Идентификатор : 1
    Формат : HEVC
    Формат/Информация : High Efficiency Video Coding
    Профиль формата : Main@L4@Main
    Идентификатор кодека : hev1
    Идентификатор кодека/Информация : High Efficiency Video Coding
    Продолжительность : 54 м.
    Битрейт : 2987 Кбит/сек
    Ширина : 1920 пикселей
    Высота : 1080 пикселей
    Соотношение сторон : 16: 9
    Режим частоты кадров : Постоянный
    Частота кадров : 23, 976 кадра/сек
    Цветовое пространство : YUV
    Субдискретизация насыщенности : 4: 2: 0
    Битовая глубина : 8 бит
    Тип развёртки : Прогрессивная
    Бит/(Пиксели*Кадры) : 0.060
    Размер потока : 1, 15 Гбайт (95%)
    Аудио
    Идентификатор : 2
    Формат : AAC
    Формат/Информация : Advanced Audio Codec
    Профиль формата : LC
    Идентификатор кодека : 40
    Продолжительность : 54 м.
    Вид битрейта : Переменный
    Битрейт : 165 Кбит/сек
    Максимальный битрейт : 192 Кбит/сек
    Каналы : 2 канала
    Расположение каналов : Front: L R
    Частота : 48, 0 КГц
    Метод сжатия : С потерями
    Размер потока : 65, 0 Мбайт (5%)
    Язык : Russian

    Скриншоты

    Залил: Zha-4k-e

    Онлайн видео Спартак


    Размер скачиваемого торрента: 47.82 GB (51344435883 Bytes)

    Спартак/Spartacus (2010–2013) BDRip HEVC 1080p | Р | LostFilm
    загрузка...
    Рейтинг →
     (голосов: 1, оценка 5/5, голосовать можно 1 раз )

    Другие торренты по теме:

  • Спартак / Spartacus (2010-2012) BDRip 720p от GYN
  • Спартак / Spartacus (1960) BDRip 720p | D, P, A скачать через торрент бесплатно
  • Спартак / Spartacus (1960) BDRip 1080p | 55th Anniversary Restored Edition | Лицензия
  • Спартак / Spartacus (2010-2013) HDRip | D | РенТВ
  • Балет. Арам Хачатурян - Спартак / Aram Khachaturian - Spartacus (2008) BDRip 720p
  • Спартак: Война проклятых / Spartacus: War of the Damned (2013) HDTVRip | L1
  • Спартак: Месть / Spartacus: Vengeance (2012) BDRip-AVC | LostFilm | Extended Version
  • OST - Спартак: Кровь и песок / Spartacus: Blood and Sand Season (2010-2012) MP3


    • Комментарии (0):

      Информация

      Информация

        Посетители, находящиеся в группе Гости, не могут оставлять комментарии в данной новости.

        ↓ Меню



        ↓ Опрос

        А Вы добавили сайт в закладки?
        Да
        Не


        Top 10 за месяц (Фильмы)