.
Авторизация | Регистрация
Хочешь лучшие торренты? Добавь свой email!
Добавить
» » Пять / The Five (2016) HDTVRip-AVC | Jaskier скачать торрент бесплатно




    Пять / The Five (2016) HDTVRip-AVC | Jaskier скачать торрент бесплатно

    Опубликовал: Админ | Дата: 17-05-2016, 17:16 | Просмотров: 46



    Детально о кино:
    Название: Пять
    Оригинальное название: The Five
    Год выхода: 2016
    Жанр: Детектив, драма, триллер
    Режиссер: Марк Тондерай
    В ролях: Том Каллен, Ханна Артертон, Том Бритни, Ли Инглби, Джеральдин Джеймс, Мэган Брэдли, Фридом Доран, Эйдан Дакворт, Джонатан Кэрриган и др.
    Описание фильма:
    Когда Марку, Прю, Дэнни и Слэйду было 12, они пошли на прогулку в парк. Но с ними пошёл надоедливый пятилетний брат Марка Джесси. Дети нагрубили ему и велели вернуться домой. Джесси убежал, но домой так и не вернулся. Спустя 20 лет Дэнни, ставший детективом, узнаёт шокирующую новость: на месте одного убийства нашли ДНК Джесси. Значит, он ещё жив и его можно отыскать. Пять — новая история от Харлана Кобена, написанная специально для телевидения. Это захватывающий современный триллер с невероятными сюжетными твистами, который еженедельно будет удивлять свою аудиторию.

    Страна: Великобритания/Red Production Company
    Продолжительность: ~00: 45: 00 серия
    Перевод: профессиональный (многоголосый, закадровый) - Jaskier
    Информация о файле:
    Формат: MKV
    Качество: HDTVRip-AVC
    Видео: ~ 1300 kbps, 1024x436
    Аудио RU: AC3, 2 ch, 192 kbps
    Субтитры: отсутствуют
    Есть голосовая реклама
    M/I
    General
    Unique ID : 144322177389129513537136698062571856498 (0x6C9370B7FA7EDF10B708B95C0D786272)
    Complete name : F: СериалыThe Five.Season.01.HDTVRip-AVC.JaskierThe.Five.UK.(s01e04).HDTVRIP_AVC.-=DoMiNo=-.mkv
    Format : Matroska
    Format version : Version 4/Version 2
    File size : 477 MiB
    Duration : 43mn 56s
    Overall bit rate : 1 519 Kbps
    Writing application : XviD4PSP 7.0.261 DAILY
    Writing library : Lavf57.25.100/Lavf57.25.100
    ENCODING_INFO : MATROSKA, WEBM MKV/H264 X264 CRF 18.0 Custom/AC3 COPY
    Video
    ID : 1
    Format : AVC
    Format/Info : Advanced Video Codec
    Format profile : High@L4.1
    Format settings, CABAC : Yes
    Format settings, ReFrames : 10 frames
    Codec ID : V_MPEG4/ISO/AVC
    Duration : 43mn 56s
    Bit rate : 1 297 Kbps
    Width : 1 024 pixels
    Height : 436 pixels
    Display aspect ratio : 2.35: 1
    Frame rate mode : Constant
    Frame rate : 25.000 fps
    Color space : YUV
    Chroma subsampling : 4: 2: 0
    Bit depth : 8 bits
    Scan type : Progressive
    Bits/(Pixel*Frame) : 0.116
    Stream size : 408 MiB (85%)
    Writing library : x264 core 148 r2694M 3b70645
    Encoding settings : cabac=1/ref=10/deblock=1: -3: -3/analyse=0x3: 0x133/me=umh/subme=10/psy=1/psy_rd=1.00: 0.10/mixed_ref=1/me_range=16/chroma_me=1/trellis=2/8x8dct=1/cqm=0/deadzone=21, 11/fast_pskip=0/chroma_qp_offset=-3/threads=5/lookahead_threads=1/sliced_threads=0/nr=0/decimate=1/interlaced=0/bluray_compat=0/constrained_intra=0/bframes=9/b_pyramid=2/b_adapt=2/b_bias=0/direct=3/weightb=1/open_gop=0/weightp=2/keyint=250/keyint_min=25/scenecut=40/intra_refresh=0/rc=crf/mbtree=0/crf=18.0/qcomp=0.60/qpmin=18/qpmax=69/qpstep=4/ip_ratio=1.40/pb_ratio=1.30/aq=1: 1.00
    Language : English
    Default : Yes
    Forced : No
    Color range : Limited
    Matrix coefficients : BT.709
    DURATION : 00: 43: 56.400000000
    Audio
    ID : 2
    Format : AC-3
    Format/Info : Audio Coding 3
    Mode extension : CM (complete main)
    Format settings, Endianness : Big
    Codec ID : A_AC3
    Duration : 43mn 56s
    Bit rate mode : Constant
    Bit rate : 192 Kbps
    Channel(s) : 2 channels
    Channel positions : Front: L R
    Sampling rate : 48.0 KHz
    Frame rate : 31.250 fps (1536 spf)
    Bit depth : 32 bits
    Compression mode : Lossy
    Stream size : 60.3 MiB (13%)
    Language : Russian
    Default : Yes
    Forced : No
    DURATION : 00: 43: 56.416000000
    Скриншоты

    Размер скачиваемого торрента: 3.75 GB (4031240401 Bytes)

    Пять/The Five (2016) HDTVRip-AVC | Jaskier
    загрузка...
    Рейтинг →
     (голосов: 1, оценка 3/5, голосовать можно 1 раз )

    Другие торренты по теме:

  • Бойня номер пять / Slaughterhouse-Five (1972) WEB-DLRip от Rulya74
  • Пять минаретов в Нью-Йорке / Five Minarets in New York (2010) BDRip-AVC от NovaLan
  • Пять легких пьес / Five Easy Pieces (1970) BDRip-AVC от MediaClub | P, P2
  • Пять гробниц по пути в Каир / Five Graves to Cairo (1943) DVDRip-AVC от F-Torrents скачать бесплатно через торрент
  • Пять кукол для августовской луны / 5 bambole per la luna dagosto / Five Dolls for an August Moon (1970) BDRip-AVC от MediaClub скачать через торрент бесплатно
  • Пять кукол для августовской луны / 5 bambole per la luna dagosto / Five Dolls for an August Moon (1970) BDRip 1080p от MediaClub скачать через торрент бесплатно
  • Пять пальцев / Five Fingers (2005) DVDRip от Scarabey | Р скачать через торрент бесплатно
  • Пять минаретов в Нью-Йорке / Five Minarets in New York (2010) BDRip 720p от CINEMANIA | P


    • Комментарии (0):

      Информация

      Информация

        Посетители, находящиеся в группе Гости, не могут оставлять комментарии в данной новости.

        ↓ Меню



        ↓ Опрос

        А Вы добавили сайт в закладки?
        Да
        Не


        Top 10 за месяц (Фильмы)