.
Авторизация | Регистрация
Хочешь лучшие торренты? Добавь свой email!
Добавить
» » Путь на юг / Southbound (2015) WEB-DL 720p от ExKinoRay | L1, A скачать торрент бесплатно




    Путь на юг / Southbound (2015) WEB-DL 720p от ExKinoRay | L1, A скачать торрент бесплатно

    Опубликовал: Админ | Дата: 16-05-2016, 05:00 | Просмотров: 68



    Детально о кино
    Русское название: Путь на юг
    Русское название в мировом прокате: Southbound
    Создали в: 2015
    Категория жанра: Ужасы, фантастика, триллер
    Главный режиссер: Роксанна Бенжамин, Дэвид Брукнер, Патрик Хорват

    Актеры
    Кейт Бихан, Мэттью Беттинелли, Сьюзэн Бурк, Зои Купер, Джералд Дауни, Карла Дродж, Ларри Фессенден, Дэна Гулд, Хасси Харрисон, Дэйв Джонсон

    Сюжет фильма

    Волею судьбы или какой-то другой неведомой силы на шоссе, ведущем на юг, оказываются совершенно разные люди. Все они едут по этой дороге с определенной целью, и у каждого из них имеются свои скелеты в шкафу. Но во время поездки все они столкнуться с непреодолимым кошмаром, который заставит их всерьез задуматься о содеянных поступках..

    Снималось в: США
    Киностудия: Willowbrook Regent Films
    Время просмотра: 01: 29: 03
    Перевод текста: Любительский одноголосый (закадровый) | Васька Куролесов
    Авторский одноголосый (закадровый) | Дмитрий Есарев
    Файл
    Кодек для видео: MPEG-4
    Качество фильма: WEB-DL 720p
    Информация о видео: 1280x544, 4022 Кbit/s, 23.976 fps
    Информация о звуке:
    Информация о звуке #01: 48 kHz, AC3, 5.1, 448 Kbps | Любительский одноголосый (закадровый), Васька Куролесов по переводу Enigma |
    Информация о звуке #02: 48 kHz, AC3, 5.1, 448 Kbps | Авторский одноголосый (закадровый), Дмитрий Есарев цензура |
    Информация о звуке #03: 48 kHz, AC3, 5.1, 448 Kbps | Авторский одноголосый (закадровый), Дмитрий Есарев без цензуры |
    Информация о звуке #04: 48 kHz, AC3, 5.1, 384 kbps | Оригинал |
    Субтитры: Английские
    Релиз подготовил: Автор релиза:
    Тип перевода: Любительское одноголосое (закадровое) от Васька Куролесов
    Автор перевода:

    MI
    Общее
    Уникальный идентификатор : 248085893795014038044900600086179225753 (0xBAA39AEC06F5145D8C33735814562099)
    Полное имя : G: VideoSouthbound.2015.WEB-DL.720p.ExKinoRay.mkv
    Формат : Matroska
    Версия формата : Version 4/Version 2
    Размер файла : 3, 58 Гбайт
    Продолжительность : 1 ч. 29 м.
    Общий поток : 5753 Кбит/сек
    Название фильма : Southbound.2015.WEB-DL.720p.ExKinoRay
    Дата кодирования : UTC 2016-05-14 21: 27: 44
    Программа кодирования : mkvmerge v8.3.0 (;Over the Horizon;) 64bit
    Библиотека кодирования : libebml v1.3.1 + libmatroska v1.4.2
    Видео
    Идентификатор : 1
    Формат : AVC
    Формат/Информация : Advanced Video Codec
    Профиль формата : Main@L3.1
    Параметр CABAC формата : Нет
    Параметр ReFrames формата : 2 кадра
    Идентификатор кодека : V_MPEG4/ISO/AVC
    Продолжительность : 1 ч. 29 м.
    Битрейт : 4022 Кбит/сек
    Ширина : 1280 пикселей
    Высота : 544 пикселя
    Соотношение сторон : 2, 35: 1
    Режим частоты кадров : Постоянный
    Частота кадров : 23, 976 кадра/сек
    Цветовое пространство : YUV
    Субдискретизация насыщенности : 4: 2: 0
    Битовая глубина : 8 бит
    Тип развёртки : Прогрессивная
    Бит/(Пиксели*Кадры) : 0.241
    Размер потока : 2, 50 Гбайт (70%)
    Язык : English
    Default : Да
    Forced : Нет
    Цветовой диапазон : Limited
    Основные цвета : BT.709
    Характеристики трансфера : BT.709
    Коэффициенты матрицы : BT.709
    Аудио #1
    Идентификатор : 2
    Формат : AC-3
    Формат/Информация : Audio Coding 3
    Расширение режима : CM (complete main)
    Параметр Endianness формата : Big
    Идентификатор кодека : A_AC3
    Продолжительность : 1 ч. 29 м.
    Вид битрейта : Постоянный
    Битрейт : 448 Кбит/сек
    Каналы : 6 каналов
    Расположение каналов : Front: L C R, Side: L R, LFE
    Частота : 48, 0 КГц
    Частота кадров : 31, 250 кадров/сек (1536 spf)
    Метод сжатия : С потерями
    Размер потока : 285 Мбайт (8%)
    Заголовок : VO (Vasjka Kyrolesov)
    Язык : Russian
    Default : Да
    Forced : Нет
    Аудио #2
    Идентификатор : 3
    Формат : AC-3
    Формат/Информация : Audio Coding 3
    Расширение режима : CM (complete main)
    Параметр Endianness формата : Big
    Идентификатор кодека : A_AC3
    Продолжительность : 1 ч. 29 м.
    Вид битрейта : Постоянный
    Битрейт : 448 Кбит/сек
    Каналы : 6 каналов
    Расположение каналов : Front: L C R, Side: L R, LFE
    Частота : 48, 0 КГц
    Частота кадров : 31, 250 кадров/сек (1536 spf)
    Метод сжатия : С потерями
    Размер потока : 285 Мбайт (8%)
    Заголовок : AVO Esarev цензура
    Язык : Russian
    Default : Нет
    Forced : Нет
    Аудио #3
    Идентификатор : 4
    Формат : AC-3
    Формат/Информация : Audio Coding 3
    Расширение режима : CM (complete main)
    Параметр Endianness формата : Big
    Идентификатор кодека : A_AC3
    Продолжительность : 1 ч. 29 м.
    Вид битрейта : Постоянный
    Битрейт : 448 Кбит/сек
    Каналы : 6 каналов
    Расположение каналов : Front: L C R, Side: L R, LFE
    Частота : 48, 0 КГц
    Частота кадров : 31, 250 кадров/сек (1536 spf)
    Метод сжатия : С потерями
    Размер потока : 285 Мбайт (8%)
    Заголовок : AVO Esarev без.цензуры
    Язык : Russian
    Default : Нет
    Forced : Нет
    Аудио #4
    Идентификатор : 5
    Формат : AC-3
    Формат/Информация : Audio Coding 3
    Расширение режима : CM (complete main)
    Параметр Endianness формата : Big
    Идентификатор кодека : A_AC3
    Продолжительность : 1 ч. 29 м.
    Вид битрейта : Постоянный
    Битрейт : 384 Кбит/сек
    Каналы : 6 каналов
    Расположение каналов : Front: L C R, Side: L R, LFE
    Частота : 48, 0 КГц
    Частота кадров : 31, 250 кадров/сек (1536 spf)
    Метод сжатия : С потерями
    Размер потока : 245 Мбайт (7%)
    Заголовок : Original
    Язык : English
    Default : Нет
    Forced : Нет
    Текст
    Идентификатор : 6
    Формат : UTF-8
    Идентификатор кодека : S_TEXT/UTF8
    Идентификатор кодека/Информация : UTF-8 Plain Text
    Продолжительность : 1 ч. 25 м.
    Битрейт : 41 бит/сек
    Count of elements : 868
    Размер потока : 26, 2 Кбайт (0%)
    Язык : English
    Default : Нет
    Forced : Нет
    Меню
    00: 00: 00.000 : en: The Way Out
    00: 12: 52.000 : en: Siren
    00: 33: 20.000 : en: The Accident
    00: 52: 56.000 : en: Jailbreak
    01: 06: 28.000 : en: The Way In
    Скриншоты


    Онлайн видео Путь на юг


    Размер скачиваемого торрента: 3.58 GB (3842193091 Bytes)

    Путь на юг/Southbound (2015) WEB-DL 720p от ExKinoRay | L1, A
    загрузка...
    Рейтинг →
     (голосов: 1, оценка 3/5, голосовать можно 1 раз )

    Другие торренты по теме:

  • Путь на юг / Southbound (2015) WEB-DLRip-AVC от torrentfilm | A
  • Путь на юг / Southbound (2015) BDRip 720p от ExKinoRay | L1, A
  • Путь на юг / Southbound (2015) BDRip-AVC от ExKinoRay | A, L1
  • Монстры Юга / Путь на юг / Southbound (2015) BDRip 1080p от HDReactor | P, A, L1


    • Комментарии (0):

      Информация

      Информация

        Посетители, находящиеся в группе Гости, не могут оставлять комментарии в данной новости.

        ↓ Меню



        ↓ Опрос

        А Вы добавили сайт в закладки?
        Да
        Не


        Top 10 за месяц (Фильмы)