.
Авторизация | Регистрация
Хочешь лучшие торренты? Добавь свой email!
Добавить
» » Человек, который хотел жить по-своему / Человек, который хотел оставаться собой / Lhomme qui voulait vivre sa vie (2010) HDRip | Р, L2 скачать торрент бесплатно




    Человек, который хотел жить по-своему / Человек, который хотел оставаться собой / Lhomme qui voulait vivre sa vie (2010) HDRip | Р, L2 скачать торрент бесплатно

    Опубликовал: Админ | Дата: 15-05-2016, 14:12 | Просмотров: 57



    Человек, который хотел жить по-своему / Человек, который хотел оставаться собой/The Big Picture / L;homme qui voulait vivre sa vie
    Снималось в: Франция
    Создали в: Canal+ fr, Cofinova 6, EuropaCorp, TF1 Films Production
    Создали в: 2010
    Категория жанра: триллер, драма
    Время просмотра: 01: 55: 17
    Главный режиссер: Эрик Лартиго
    Авторы сценария: Эмманюэль Берко, Бернард Жанжан, Стефани Кабель

    Актеры
    Ромен Дюрис, Марина Фоис, Нильс Ареструп, Бранка Катич, Катрин Денёв, Эрик Руф, Энцо Какот, Люка Антик
    Описание: Главный герой Поль — сотрудник одной из адвокатских контор Парижа с большой зарплатой и большим домом, красивой женой и двумя сыновьями. Однако вскоре Поль узнает, что его жена изменяет ему с местным фотографом. Слепая ярость толкает Поля на безрассудный поступок. Стоя над трупом любовника, он понимает, что его красивая благополучная жизнь в прошлом…

    Перевод текста: Профессиональный (многоголосый) | 1 канал+ Любительский (двухголосый) | студия Elrom
    Субтитры: нет
    Качество фильма: HDRip
    Тип видео: АVI
    Информация о видео кодек: XviD
    Информация о звуке кодек: АС3
    Информация о видео: 720x304 (2.35: 1), 23.976 fps, XviD ~1 410 kbps avg, 0.269 bit/pixel
    Информация о звуке №1: 48.0 kHz, AC3 Dolby Digital, 2/0 (L, R) ch, ~192 kbps | MVO
    Информация о звуке №2: 48.0 kHz, AC3 Dolby Digital, 2/0 (L, R) ch, ~192 kbps | DVO
    Дата премьеры (мир): 3 ноября 2010
    Media Info
    General
    Полное имя : Человек, который хотел оставаться собой.avi
    Формат : AVI
    Формат/Информация : Audio Video Interleave
    Размер файла : 1, 46 Гбайт
    Продолжительность : 1 ч. 55 м.
    Общий поток : 1809 Кбит/сек
    Название фильма : Человек, который хотел оставаться собой/Человек, который любил оставаться собой/L;homme qui voulait vivre sa vie (2010)
    Программа кодирования : VirtualDubMod 1.5.10.2 (build 2540/release)
    Информация о видео
    Идентификатор : 0
    Формат : MPEG-4 Visual
    Профиль формата : Advanced Simple@L5
    Параметр BVOP формата : 2
    Параметр QPel формата : Нет
    Параметр GMC формата : Без точки перехода
    Параметр матрицы формата : Default (MPEG)
    Идентификатор кодека : XVID
    Идентификатор кодека/Подсказка : XviD
    Продолжительность : 1 ч. 55 м.
    Битрейт : 1410 Кбит/сек
    Ширина : 720 пикселей
    Высота : 304 пикселя
    Соотношение сторон : 2, 35: 1
    Частота кадров : 23, 976 кадра/сек
    Цветовое пространство : YUV
    Субдискретизация насыщенности : 4: 2: 0
    Битовая глубина : 8 бит
    Тип развёртки : Прогрессивная
    Метод сжатия : С потерями
    Бит/(Пиксели*Кадры) : 0.269
    Размер потока : 1, 14 Гбайт (78%)
    Библиотека кодирования : XviD 1.1.0 (UTC 2005-11-22)
    Информация о звуке #1
    Идентификатор : 1
    Формат : AC-3
    Формат/Информация : Audio Coding 3
    Расширение режима : CM (complete main)
    Параметр Endianness формата : Big
    Идентификатор кодека : 2000
    Продолжительность : 1 ч. 55 м.
    Вид битрейта : Постоянный
    Битрейт : 192 Кбит/сек
    Каналы : 2 канала
    Расположение каналов : Front: L R
    Частота : 48, 0 КГц
    Битовая глубина : 16 бит
    Метод сжатия : С потерями
    Размер потока : 158 Мбайт (11%)
    Выравнивание : Разделение по промежуткам
    Продолжительность промежутка : 42 мс. (1, 00 видеокадр)
    Время предзагрузки промежутка : 500 мс.
    Заголовок : Профессиональный (многоголосый, закадровый) 1 канал
    Информация о звуке #2
    Идентификатор : 2
    Формат : AC-3
    Формат/Информация : Audio Coding 3
    Расширение режима : CM (complete main)
    Параметр Endianness формата : Big
    Идентификатор кодека : 2000
    Продолжительность : 1 ч. 55 м.
    Вид битрейта : Постоянный
    Битрейт : 192 Кбит/сек
    Каналы : 2 канала
    Расположение каналов : Front: L R
    Частота : 48, 0 КГц
    Битовая глубина : 16 бит
    Метод сжатия : С потерями
    Размер потока : 158 Мбайт (11%)
    Выравнивание : Разделение по промежуткам
    Продолжительность промежутка : 42 мс. (1, 00 видеокадр)
    Время предзагрузки промежутка : 500 мс.
    Заголовок : Профессиональный (двухголосый закадровый) Студия Elrom

    Скриншоты

    Залил: Zha-5k-e

    Онлайн видео Человек, который хотел жить по-своему


    Размер скачиваемого торрента: 1.46 GB (1563754496 Bytes)

    Человек, который хотел жить по-своему/Человек, который хотел оставаться собой/Lhomme qui voulait vivre sa vie (2010) HDRip | Р, L2
    загрузка...
    Рейтинг →
     (голосов: 1, оценка 5/5, голосовать можно 1 раз )

    Другие торренты по теме:

  • Мужчина, который мне нравится / Человек, который мне нравится / Un homme qui me plat (1969) DVDRip | P1 скачать через торрент бесплатно
  • Человек, который играл бога / The Man Who Played God (1932) DVDRip от egoleshik
  • Человек, который изменил всё / Moneyball (2011) BDRip 1080p | D
  • Человек, который застрелил Либерти Вэланса / The Man Who Shot Liberty Valance (1962) BDRip-AVC от Тorrent-Хzona
  • Человек, который слишком много знал / The Man Who Knew Too Much (1934) BDRip от HQCLUB
  • Человек, который плакал / The Man Who Cried (2000) DVD-9
  • Человек, который смеется / Lhomme qui rit (2012) DVD5 | P
  • Человек, который был Шерлоком Холмсом / Der Mann, der Sherlock Holmes war (1937) DVDRip


    • Комментарии (0):

      Информация

      Информация

        Посетители, находящиеся в группе Гости, не могут оставлять комментарии в данной новости.

        ↓ Меню



        ↓ Опрос

        А Вы добавили сайт в закладки?
        Да
        Не


        Top 10 за месяц (Фильмы)